Поиск

(Bop) [3 CD] VA (Dizzy Gillespie, Pepper Adams, Ray Nance, Chick Corea, Thad Jones/Mel Lewis Orchestra) - Village Vanguard Live Sessions - 1997 (1967-70), FLAC (tracks+.cue), lossless

(Bop) [3 CD] VA (Dizzy Gillespie, Pepper Adams, Ray Nance, Chick Corea, Thad Jones/Mel Lewis Orchestra) - Village Vanguard Live Sessions - 1997 (1967-70), FLAC (tracks+.cue), lossless
Треклист:
Village Vanguard Live Sessions
Жанр: Bop
Носитель: CD
Страна-производитель диска (релиза): США
Год издания: 1997 (1967-70)
Издатель (лейбл): LaserLight
Номер по каталогу: 17 136, 17 137, 17 138
Страна исполнителя (группы): США
Аудиокодек: FLAC (*.flac)
Тип рипа: tracks+.cue
Битрейт аудио: lossless
Продолжительность: 03:20:05
Источник (релизер): hoppyharrington
Наличие сканов в содержимом раздачи: да
 
CD 1
01. Lover Come Back To Me [19:13]
02. Blues For Max [9:12]
03. Tour de Force [11:56]
04. Birk's Works [17:58]
05. Lullaby Of The Leaves [13:28]
 
Лог создания рипа
Exact Audio Copy V1.0 beta 4 from 7. December 2014
EAC extraction logfile from 16. June 2016, 15:23
VA / Village Vanguard Live Sessions, CD 1
Used drive : HL-DT-STDVD+-RW GH82N Adapter: 1 ID: 0
Read mode : Secure
Utilize accurate stream : Yes
Defeat audio cache : Yes
Make use of C2 pointers : No
Read offset correction : 667
Overread into Lead-In and Lead-Out : No
Fill up missing offset samples with silence : Yes
Delete leading and trailing silent blocks : No
Null samples used in CRC calculations : Yes
Used interface : Native Win32 interface for Win NT & 2000
Gap handling : Appended to previous track
Used output format : User Defined Encoder
Selected bitrate : 1024 kBit/s
Quality : High
Add ID3 tag : No
Command line compressor : C:\Program Files (x86)\Exact Audio Copy\FLAC\FLAC.EXE
Additional command line options : -6 -V -T "ARTIST=%artist%" -T "TITLE=%title%" -T "ALBUM=%albumtitle%" -T "DATE=%year%" -T "TRACKNUMBER=%tracknr%" -T "GENRE=%genre%" -T "COMMENT=%comment%" -T "BAND=%albuminterpret%" -T "ALBUMARTIST=%albuminterpret%" -T "COMPOSER=%composer%" %haslyrics%--tag-from-file=LYRICS="%lyricsfile%"%haslyrics% -T "DISCNUMBER=%cdnumber%" -T "TOTALDISCS=%totalcds%" -T "TOTALTRACKS=%numtracks%" %hascover%--picture="%coverfile%"%hascover% %source% -o %dest%
TOC of the extracted CD
Track | Start | Length | Start sector | End sector
---------------------------------------------------------
1 | 0:00.00 | 19:13.65 | 0 | 86539
2 | 19:13.65 | 9:12.45 | 86540 | 127984
3 | 28:26.35 | 11:56.50 | 127985 | 181734
4 | 40:23.10 | 17:58.38 | 181735 | 262622
5 | 58:21.48 | 13:28.27 | 262623 | 323249
Track 1
Filename C:\Rips\VA - Village Vanguard Live Sessions\CD 1\01 Lover Come Back To Me.wav
Pre-gap length 0:00:02.00
Peak level 99.0 %
Extraction speed 2.5 X
Track quality 100.0 %
Copy CRC E3786132
Cannot be verified as accurate (confidence 2) [EA999044], AccurateRip returned [9D40D194] (AR v2)
Copy OK
Track 2
Filename C:\Rips\VA - Village Vanguard Live Sessions\CD 1\02 Blues For Max.wav
Pre-gap length 0:00:03.15
Peak level 79.4 %
Extraction speed 3.0 X
Track quality 100.0 %
Copy CRC 221B95C1
Cannot be verified as accurate (confidence 2) [BFCDB941], AccurateRip returned [EC9AEF35] (AR v2)
Copy OK
Track 3
Filename C:\Rips\VA - Village Vanguard Live Sessions\CD 1\03 Tour de Force.wav
Pre-gap length 0:00:02.50
Peak level 75.8 %
Extraction speed 3.4 X
Track quality 100.0 %
Copy CRC 9B170EFB
Cannot be verified as accurate (confidence 2) [67EEA20B], AccurateRip returned [512A412B] (AR v2)
Copy OK
Track 4
Filename C:\Rips\VA - Village Vanguard Live Sessions\CD 1\04 Birk's Works.wav
Pre-gap length 0:00:01.70
Peak level 94.6 %
Extraction speed 3.9 X
Track quality 100.0 %
Copy CRC EDED4979
Cannot be verified as accurate (confidence 2) [9C566301], AccurateRip returned [94ADB86B] (AR v2)
Copy OK
Track 5
Filename C:\Rips\VA - Village Vanguard Live Sessions\CD 1\05 Lullaby Of The Leaves.wav
Pre-gap length 0:00:04.48
Peak level 100.0 %
Extraction speed 4.3 X
Track quality 100.0 %
Copy CRC E93A7504
Cannot be verified as accurate (confidence 2) [AA6F3426], AccurateRip returned [D5351F99] (AR v2)
Copy OK
No tracks could be verified as accurate
You may have a different pressing from the one(s) in the database
No errors occurred
End of status report
---- CUETools DB Plugin V2.1.4
[CTDB TOCID: hxKQ0p.3b6uX90L3HZBir3eYjvw-] found
Submit result: hxKQ0p.3b6uX90L3HZBir3eYjvw- has been confirmed
Track | CTDB Status
1 | (1/1) Accurately ripped
2 | (1/1) Accurately ripped
3 | (1/1) Accurately ripped
4 | (1/1) Accurately ripped
5 | (1/1) Accurately ripped
==== Log checksum A57C2467E3C3933C64BEE170031D8E2848ABEE0E8F9D11EC1FED54F5640EE362 ====
 
Содержание индексной карты (.CUE)
REM GENRE Jazz
REM DISCID 3610D605
REM COMMENT "ExactAudioCopy v1.0b4"
PERFORMER "VA"
TITLE "Village Vanguard Live Sessions, CD 1"
FILE "01 Lover Come Back To Me.wav" WAVE
TRACK 01 AUDIO
TITLE "Lover Come Back To Me"
PERFORMER "Corea, Gillespie, Adams, Davis, Nance, Lewis"
INDEX 01 00:00:00
TRACK 02 AUDIO
TITLE "Blues For Max"
PERFORMER "Corea, Gillespie, Adams, Davis, Nance, Lewis"
INDEX 00 19:10:50
FILE "02 Blues For Max.wav" WAVE
INDEX 01 00:00:00
TRACK 03 AUDIO
TITLE "Tour de Force"
PERFORMER "Corea, Gillespie, Adams, Davis, Brown, Lewis"
INDEX 00 09:09:70
FILE "03 Tour de Force.wav" WAVE
INDEX 01 00:00:00
TRACK 04 AUDIO
TITLE "Birk's Works"
PERFORMER "Corea, Gillespie, Adams, Davis, Nance, Jones"
INDEX 00 11:54:55
FILE "04 Birk's Works.wav" WAVE
INDEX 01 00:00:00
TRACK 05 AUDIO
TITLE "Lullaby Of The Leaves"
PERFORMER "Corea, Gillespie, Adams, Davis, Nance, Jones"
INDEX 00 17:53:65
FILE "05 Lullaby Of The Leaves.wav" WAVE
INDEX 01 00:00:00
 
CD 2
01. Stella By Starlight [22:09]
02. 13 Avenue ''B'' [15:16]
03. On The Trail [16:46]
04. Sweet Georgia Brown [16:18]
 
Лог создания рипа
Exact Audio Copy V1.0 beta 4 from 7. December 2014
EAC extraction logfile from 16. June 2016, 15:49
VA / Village Vanguard Live Sessions, CD 2
Used drive : HL-DT-STDVD+-RW GH82N Adapter: 1 ID: 0
Read mode : Secure
Utilize accurate stream : Yes
Defeat audio cache : Yes
Make use of C2 pointers : No
Read offset correction : 667
Overread into Lead-In and Lead-Out : No
Fill up missing offset samples with silence : Yes
Delete leading and trailing silent blocks : No
Null samples used in CRC calculations : Yes
Used interface : Native Win32 interface for Win NT & 2000
Gap handling : Appended to previous track
Used output format : User Defined Encoder
Selected bitrate : 1024 kBit/s
Quality : High
Add ID3 tag : No
Command line compressor : C:\Program Files (x86)\Exact Audio Copy\FLAC\FLAC.EXE
Additional command line options : -6 -V -T "ARTIST=%artist%" -T "TITLE=%title%" -T "ALBUM=%albumtitle%" -T "DATE=%year%" -T "TRACKNUMBER=%tracknr%" -T "GENRE=%genre%" -T "COMMENT=%comment%" -T "BAND=%albuminterpret%" -T "ALBUMARTIST=%albuminterpret%" -T "COMPOSER=%composer%" %haslyrics%--tag-from-file=LYRICS="%lyricsfile%"%haslyrics% -T "DISCNUMBER=%cdnumber%" -T "TOTALDISCS=%totalcds%" -T "TOTALTRACKS=%numtracks%" %hascover%--picture="%coverfile%"%hascover% %source% -o %dest%
TOC of the extracted CD
Track | Start | Length | Start sector | End sector
---------------------------------------------------------
1 | 0:00.00 | 22:09.65 | 0 | 99739
2 | 22:09.65 | 15:16.13 | 99740 | 168452
3 | 37:26.03 | 16:46.10 | 168453 | 243912
4 | 54:12.13 | 16:18.15 | 243913 | 317277
Track 1
Filename C:\Rips\VA - Village Vanguard Live Sessions\CD 2\01 Stella By Starlight.wav
Pre-gap length 0:00:02.00
Peak level 74.9 %
Extraction speed 2.5 X
Track quality 100.0 %
Copy CRC 49CB1C42
Cannot be verified as accurate (confidence 2) [918A4B6E], AccurateRip returned [FE72D305] (AR v2)
Copy OK
Track 2
Filename C:\Rips\VA - Village Vanguard Live Sessions\CD 2\02 13 Avenue ''B''.wav
Pre-gap length 0:00:03.50
Peak level 76.2 %
Extraction speed 3.3 X
Track quality 100.0 %
Copy CRC 9A2DDDF4
Cannot be verified as accurate (confidence 2) [B7E22F3C], AccurateRip returned [F506F93C] (AR v2)
Copy OK
Track 3
Filename C:\Rips\VA - Village Vanguard Live Sessions\CD 2\03 On The Trail.wav
Pre-gap length 0:00:01.63
Peak level 81.6 %
Extraction speed 3.8 X
Track quality 100.0 %
Copy CRC 3126CD86
Cannot be verified as accurate (confidence 2) [6F518B6A], AccurateRip returned [E66ED133] (AR v2)
Copy OK
Track 4
Filename C:\Rips\VA - Village Vanguard Live Sessions\CD 2\04 Sweet Georgia Brown.wav
Pre-gap length 0:00:03.03
Peak level 74.3 %
Extraction speed 4.3 X
Track quality 100.0 %
Copy CRC B81E8D8E
Cannot be verified as accurate (confidence 2) [5695DD19], AccurateRip returned [67B18E06] (AR v2)
Copy OK
No tracks could be verified as accurate
You may have a different pressing from the one(s) in the database
No errors occurred
End of status report
---- CUETools DB Plugin V2.1.4
[CTDB TOCID: uY.C6rMJ71TcU4FTNblIaExZPlw-] found
Submit result: uY.C6rMJ71TcU4FTNblIaExZPlw- has been confirmed
Track | CTDB Status
1 | (2/2) Accurately ripped
2 | (1/2) Accurately ripped
3 | (1/2) Accurately ripped
4 | (1/2) Accurately ripped
==== Log checksum 65BF22DF9ABF1054DA9CA2CC06947827330228D5457B3AA920305CA0AB2901A7 ====
 
Содержание индексной карты (.CUE)
REM GENRE Jazz
REM DISCID 28108604
REM COMMENT "ExactAudioCopy v1.0b4"
PERFORMER "VA"
TITLE "Village Vanguard Live Sessions, CD 2"
FILE "01 Stella By Starlight.wav" WAVE
TRACK 01 AUDIO
TITLE "Stella By Starlight"
PERFORMER "Stamm, Farrell, Brown, Corea, Davis, Jones"
INDEX 01 00:00:00
TRACK 02 AUDIO
TITLE "13 Avenue 'B'"
PERFORMER "Stamm, Farrell, Brown, Corea, Davis, Jones"
INDEX 00 22:06:15
FILE "02 13 Avenue ''B''.wav" WAVE
INDEX 01 00:00:00
TRACK 03 AUDIO
TITLE "On The Trail"
PERFORMER "Corea, Gillespie, Adams, Brown, Davis, Jones"
INDEX 00 15:14:25
FILE "03 On The Trail.wav" WAVE
INDEX 01 00:00:00
TRACK 04 AUDIO
TITLE "Sweet Georgia Brown"
PERFORMER "Corea, Gillespie, Adams, Brown, Davis, Jones"
INDEX 00 16:43:07
FILE "04 Sweet Georgia Brown.wav" WAVE
INDEX 01 00:00:00
 
CD 3
01. Don't Get Sassy [8:21]
02. Little Pixie [10:50]
03. The Second Race [10:32]
04. Willow Tree [5:36]
05. Ah' That's Freedom [8:56]
06. Quietude [5:03]
07. Bachafillen [8:25]
 
Лог создания рипа
Exact Audio Copy V1.0 beta 4 from 7. December 2014
EAC extraction logfile from 16. June 2016, 16:12
Thad Jones/Mel Lewis Orchestra / Village Vanguard Live Sessions, CD 3
Used drive : HL-DT-STDVD+-RW GH82N Adapter: 1 ID: 0
Read mode : Secure
Utilize accurate stream : Yes
Defeat audio cache : Yes
Make use of C2 pointers : No
Read offset correction : 667
Overread into Lead-In and Lead-Out : No
Fill up missing offset samples with silence : Yes
Delete leading and trailing silent blocks : No
Null samples used in CRC calculations : Yes
Used interface : Native Win32 interface for Win NT & 2000
Gap handling : Appended to previous track
Used output format : User Defined Encoder
Selected bitrate : 1024 kBit/s
Quality : High
Add ID3 tag : No
Command line compressor : C:\Program Files (x86)\Exact Audio Copy\FLAC\FLAC.EXE
Additional command line options : -6 -V -T "ARTIST=%artist%" -T "TITLE=%title%" -T "ALBUM=%albumtitle%" -T "DATE=%year%" -T "TRACKNUMBER=%tracknr%" -T "GENRE=%genre%" -T "COMMENT=%comment%" -T "BAND=%albuminterpret%" -T "ALBUMARTIST=%albuminterpret%" -T "COMPOSER=%composer%" %haslyrics%--tag-from-file=LYRICS="%lyricsfile%"%haslyrics% -T "DISCNUMBER=%cdnumber%" -T "TOTALDISCS=%totalcds%" -T "TOTALTRACKS=%numtracks%" %hascover%--picture="%coverfile%"%hascover% %source% -o %dest%
TOC of the extracted CD
Track | Start | Length | Start sector | End sector
---------------------------------------------------------
1 | 0:00.00 | 8:21.15 | 0 | 37589
2 | 8:21.15 | 10:50.35 | 37590 | 86374
3 | 19:11.50 | 10:32.05 | 86375 | 133779
4 | 29:43.55 | 5:36.32 | 133780 | 159011
5 | 35:20.12 | 8:56.00 | 159012 | 199211
6 | 44:16.12 | 5:03.53 | 199212 | 221989
7 | 49:19.65 | 8:25.37 | 221990 | 259901
Track 1
Filename C:\Rips\VA - Village Vanguard Live Sessions\CD 3\01 - Don't Get Sassy.wav
Pre-gap length 0:00:02.00
Peak level 84.7 %
Extraction speed 2.1 X
Track quality 100.0 %
Copy CRC EB7270F5
Accurately ripped (confidence 1) [AB396EFA] (AR v2)
Copy OK
Track 2
Filename C:\Rips\VA - Village Vanguard Live Sessions\CD 3\02 - Little Pixie.wav
Pre-gap length 0:00:03.03
Peak level 78.9 %
Extraction speed 2.7 X
Track quality 100.0 %
Copy CRC 36FC2593
Accurately ripped (confidence 1) [E16587F2] (AR v2)
Copy OK
Track 3
Filename C:\Rips\VA - Village Vanguard Live Sessions\CD 3\03 - The Second Race.wav
Pre-gap length 0:00:03.00
Peak level 54.3 %
Extraction speed 3.2 X
Track quality 100.0 %
Copy CRC A19AAB40
Accurately ripped (confidence 1) [4C724DA6] (AR v2)
Copy OK
Track 4
Filename C:\Rips\VA - Village Vanguard Live Sessions\CD 3\04 - Willow Tree.wav
Pre-gap length 0:00:01.69
Peak level 67.9 %
Extraction speed 3.3 X
Track quality 100.0 %
Copy CRC 01B80F1E
Accurately ripped (confidence 1) [A2981D34] (AR v2)
Copy OK
Track 5
Filename C:\Rips\VA - Village Vanguard Live Sessions\CD 3\05 - Ah' That's Freedom.wav
Pre-gap length 0:00:03.35
Peak level 87.1 %
Extraction speed 3.7 X
Track quality 100.0 %
Copy CRC 879DA63C
Accurately ripped (confidence 1) [E1D85592] (AR v2)
Copy OK
Track 6
Filename C:\Rips\VA - Village Vanguard Live Sessions\CD 3\06 - Quietude.wav
Pre-gap length 0:00:03.57
Peak level 85.4 %
Extraction speed 3.7 X
Track quality 100.0 %
Copy CRC 80667FB1
Accurately ripped (confidence 1) [2F6FF56A] (AR v2)
Copy OK
Track 7
Filename C:\Rips\VA - Village Vanguard Live Sessions\CD 3\07 - Bachafillen.wav
Pre-gap length 0:00:03.30
Peak level 84.8 %
Extraction speed 4.1 X
Track quality 100.0 %
Copy CRC F5B5C4DC
Accurately ripped (confidence 1) [FF88FBCC] (AR v2)
Copy OK
All tracks accurately ripped
No errors occurred
End of status report
---- CUETools DB Plugin V2.1.4
[CTDB TOCID: j55A0juTQsXOcv6kQae5m5E4OQI-] found
Submit result: j55A0juTQsXOcv6kQae5m5E4OQI- has been confirmed
Track | CTDB Status
1 | (2/2) Accurately ripped
2 | (2/2) Accurately ripped
3 | (2/2) Accurately ripped
4 | (2/2) Accurately ripped
5 | (2/2) Accurately ripped
6 | (2/2) Accurately ripped
7 | (2/2) Accurately ripped
==== Log checksum 23BB25F17A1752997565C16F3D86A61CC0A4887828EC02AB546C0AF07E51E4D1 ====
 
Содержание индексной карты (.CUE)
REM GENRE Jazz
REM DISCID 570D8907
REM COMMENT "ExactAudioCopy v1.0b4"
PERFORMER "Thad Jones/Mel Lewis Orchestra"
TITLE "Village Vanguard Live Sessions, CD 3"
FILE "01 - Don't Get Sassy.wav" WAVE
TRACK 01 AUDIO
TITLE "Don't Get Sassy"
PERFORMER "Thad Jones/Mel Lewis Orchestra"
INDEX 01 00:00:00
TRACK 02 AUDIO
TITLE "Little Pixie"
PERFORMER "Thad Jones/Mel Lewis Orchestra"
INDEX 00 08:18:12
FILE "02 - Little Pixie.wav" WAVE
INDEX 01 00:00:00
TRACK 03 AUDIO
TITLE "The Second Race"
PERFORMER "Thad Jones/Mel Lewis Orchestra"
INDEX 00 10:47:35
FILE "03 - The Second Race.wav" WAVE
INDEX 01 00:00:00
TRACK 04 AUDIO
TITLE "Willow Tree"
PERFORMER "Thad Jones/Mel Lewis Orchestra"
INDEX 00 10:30:11
FILE "04 - Willow Tree.wav" WAVE
INDEX 01 00:00:00
TRACK 05 AUDIO
TITLE "Ah' That's Freedom"
PERFORMER "Thad Jones/Mel Lewis Orchestra"
INDEX 00 05:32:72
FILE "05 - Ah' That's Freedom.wav" WAVE
INDEX 01 00:00:00
TRACK 06 AUDIO
TITLE "Quietude"
PERFORMER "Thad Jones/Mel Lewis Orchestra"
INDEX 00 08:52:18
FILE "06 - Quietude.wav" WAVE
INDEX 01 00:00:00
TRACK 07 AUDIO
TITLE "Bachafillen"
PERFORMER "Thad Jones/Mel Lewis Orchestra"
INDEX 00 05:00:23
FILE "07 - Bachafillen.wav" WAVE
INDEX 01 00:00:00
 
info
CD1:
tracks 1-2 & 4-5:
Dizzy Gillespie - trumpet
Pepper Adams - baritone sax
Ray Nance - violin
Chick Corea - piano
Richard Davis - bass
Mel Lewis - drums
track 3:
Dizzy Gillespie - trumpet
Pepper Adams - baritone sax
Garnett Brown - trombone
Chick Corea - piano
Richard Davis - bass
Elvin Jones - drums
CD 2:
tracks 1-2:
Marvin Stamm - trumpet
Joe Farrell - tenor sax
Garnett Brown - trombone
Chick Corea - piano
Richard Davis - bass
Elvin Jones - drums
tracks 3-4:
Dizzy Gillespie - trumpet
Pepper Adams - baritone sax
Garnett Brown - trombone
Chick Corea - piano
Richard Davis - bass
Mel Lewis - drums
CD 3:
Thad Jones/Mel Lewis Orchestra:
Thad Jones (cnt), Snooky Young, Bill Berry, Jimmy Nottingham, Richard Williams, Marvin Stamm (tp), Bob Brookmeyer (vtb), Tom McIntosh, Garnett Brown (tb), Cliff Heather (btb), Jerome Richardson (saxes, fl, cl), Jerry Dodgion (as, fl), Joe Farrell (ts, fl), Eddie Daniels (ts, cl), Pepper Adams (bs, cl), Roland Hanna (p), Sam Herman (g), Richard Davis (b), Mel Lewis (d)
Any questions - support@pro-jazz.com
To become a power user - read FAQ.
11:25
558
Нет комментариев. Ваш будет первым!