Поиск

(Big Band) Quincy Jones — Big Band Bossa Nova (1962) — 2005, FLAC (tracks+.cue) lossless

Треклист:
Quincy Jones — Big Band Bossa Nova (1962)
Жанр: Big Band
Год издания диска: 2005
Лейбл: Verve
Номер по каталогу: 02498840399
Аудио кодек: FLAC (*.flac)
Тип рипа: tracks+.cue
Битрейт аудио: lossless
Продолжительность: 35:44
Rip by Sarchiapone
Сканы есть
Треклист:
01. Soul Bossa Nova (2:48)
02. Boogie Stop Shuffle (2:45)
03. Desafinado (2:57)
04. Manha De Carnaval (2:58)
05. Se E Tarde Me Pardoa (4:25)
06. On The Street Where You Live (2:36)
07. Samba De Una Nota So (2:05)
08. Lalo Bossa Nova (3:13)
09. Serenata (3:22)
10. Chega De Saudade (5:39)
11. A Taste Of Honey (2:57)
Rec.: A&R Studios, NYC, NY, September 4 (#2, 4, 7), 7 (#6, 8, 9), 8 (#3, 10) and 13 (#1, 5, 11), 1962.
 
Лог создания рипа
Exact Audio Copy V0.99 prebeta 4 from 23. January 2008
EAC extraction logfile from 25. November 2008, 15:22
Quincy Jones / Big Band Bossa Nova
Used drive : PLEXTOR CD-R PREMIUM2 Adapter: 1 ID: 1
Read mode : Secure
Utilize accurate stream : Yes
Defeat audio cache : Yes
Make use of C2 pointers : No
Read offset correction : 30
Overread into Lead-In and Lead-Out : No
Fill up missing offset samples with silence : Yes
Delete leading and trailing silent blocks : No
Null samples used in CRC calculations : Yes
Used interface : Installed external ASPI interface
Gap handling : Appended to previous track
Used output format : User Defined Encoder
Selected bitrate : 32 kBit/s
Quality : High
Add ID3 tag : No
Command line compressor : C:\Programmi\FLAC\flac.exe
Additional command line options : -8 -V -T "ARTIST=%a" -T "TITLE=%t" -T "ALBUM=%g" -T "DATE=%y" -T "TRACKNUMBER=%n" -T "GENRE=%m" -T "COMMENT=EAC FLAC -8" %s
TOC of the extracted CD
Track | Start | Length | Start sector | End sector
---------------------------------------------------------
1 | 0:00.00 | 2:47.63 | 0 | 12587
2 | 2:47.63 | 2:44.52 | 12588 | 24939
3 | 5:32.40 | 2:57.03 | 24940 | 38217
4 | 8:29.43 | 2:57.67 | 38218 | 51559
5 | 11:27.35 | 4:25.08 | 51560 | 71442
6 | 15:52.43 | 2:36.25 | 71443 | 83167
7 | 18:28.68 | 2:04.50 | 83168 | 92517
8 | 20:33.43 | 3:13.07 | 92518 | 106999
9 | 23:46.50 | 3:21.63 | 107000 | 122137
10 | 27:08.38 | 5:39.12 | 122138 | 147574
11 | 32:47.50 | 2:56.40 | 147575 | 160814
Track 1
Filename C:\My Rip\01 - Soul Bossa Nova.wav
Pre-gap length 0:00:02.00
Peak level 100.0 %
Track quality 100.0 %
Test CRC DEAFFDC9
Copy CRC DEAFFDC9
Accurately ripped (confidence 9) [29D83832]
Copy OK
Track 2
Filename C:\My Rip\02 - Boogie Stop Shuffle.wav
Pre-gap length 0:00:03.06
Peak level 100.0 %
Track quality 99.9 %
Test CRC 9D9603AA
Copy CRC 9D9603AA
Accurately ripped (confidence 9) [56944F7E]
Copy OK
Track 3
Filename C:\My Rip\03 - Desafinado.wav
Pre-gap length 0:00:03.40
Peak level 100.0 %
Track quality 100.0 %
Test CRC 4F116A58
Copy CRC 4F116A58
Accurately ripped (confidence 9) [B71EFF48]
Copy OK
Track 4
Filename C:\My Rip\04 - Manha de Carnaval.wav
Pre-gap length 0:00:03.90
Peak level 100.0 %
Track quality 100.0 %
Test CRC 105F9DD5
Copy CRC 105F9DD5
Accurately ripped (confidence 9) [B62FC191]
Copy OK
Track 5
Filename C:\My Rip\05 - Se E Tarde Me Pardoa.wav
Pre-gap length 0:00:02.80
Peak level 100.0 %
Track quality 100.0 %
Test CRC 4CE10A7F
Copy CRC 4CE10A7F
Accurately ripped (confidence 9) [616DEC62]
Copy OK
Track 6
Filename C:\My Rip\06 - On the Street Where You Live.wav
Pre-gap length 0:00:03.60
Peak level 100.0 %
Track quality 100.0 %
Test CRC 0DB37399
Copy CRC 0DB37399
Accurately ripped (confidence 9) [08B66088]
Copy OK
Track 7
Filename C:\My Rip\07 - Samba de Una Nota So.wav
Pre-gap length 0:00:03.64
Peak level 100.0 %
Track quality 100.0 %
Test CRC 9059446E
Copy CRC 9059446E
Accurately ripped (confidence 9) [2C6BC56A]
Copy OK
Track 8
Filename C:\My Rip\08 - Lalo Bossa Nova.wav
Pre-gap length 0:00:04.46
Peak level 100.0 %
Track quality 100.0 %
Test CRC B1BD6001
Copy CRC B1BD6001
Accurately ripped (confidence 9) [19CF4C7D]
Copy OK
Track 9
Filename C:\My Rip\09 - Serenata.wav
Peak level 100.0 %
Track quality 100.0 %
Test CRC B6D7A339
Copy CRC B6D7A339
Accurately ripped (confidence 9) [BA6EF6B3]
Copy OK
Track 10
Filename C:\My Rip\10 - Chega De Saudade.wav
Pre-gap length 0:00:04.00
Peak level 100.0 %
Track quality 100.0 %
Test CRC 71BB9452
Copy CRC 71BB9452
Accurately ripped (confidence 9) [295B107D]
Copy OK
Track 11
Filename C:\My Rip\11 - A Taste of Honey.wav
Pre-gap length 0:00:08.97
Peak level 100.0 %
Track quality 100.0 %
Test CRC EF5A9B26
Copy CRC EF5A9B26
Accurately ripped (confidence 8) [D3CA17C0]
Copy OK
All tracks accurately ripped
No errors occurred
End of status report
 
Содержание индексной карты (.CUE)
REM GENRE Jazz
REM DATE 1962
REM DISCID 8C08600B
REM COMMENT "ExactAudioCopy v0.99pb4"
PERFORMER "Quincy Jones"
TITLE "Big Band Bossa Nova"
FILE "01 - Soul Bossa Nova.flac" WAVE
TRACK 01 AUDIO
TITLE "Soul Bossa Nova"
PERFORMER "Quincy Jones"
INDEX 01 00:00:00
TRACK 02 AUDIO
TITLE "Boogie Stop Shuffle"
PERFORMER "Quincy Jones"
INDEX 00 02:44:58
FILE "02 - Boogie Stop Shuffle.flac" WAVE
INDEX 01 00:00:00
TRACK 03 AUDIO
TITLE "Desafinado"
PERFORMER "Quincy Jones"
INDEX 00 02:41:22
FILE "03 - Desafinado.flac" WAVE
INDEX 01 00:00:00
TRACK 04 AUDIO
TITLE "Manha de Carnaval"
PERFORMER "Quincy Jones"
INDEX 00 02:53:10
FILE "04 - Manha de Carnaval.flac" WAVE
INDEX 01 00:00:00
TRACK 05 AUDIO
TITLE "Se E Tarde Me Pardoa"
PERFORMER "Quincy Jones"
INDEX 00 02:55:07
FILE "05 - Se E Tarde Me Pardoa.flac" WAVE
INDEX 01 00:00:00
TRACK 06 AUDIO
TITLE "On the Street Where You Live"
PERFORMER "Quincy Jones"
INDEX 00 04:21:38
FILE "06 - On the Street Where You Live.flac" WAVE
INDEX 01 00:00:00
TRACK 07 AUDIO
TITLE "Samba de Una Nota So"
PERFORMER "Quincy Jones"
INDEX 00 02:32:52
FILE "07 - Samba de Una Nota So.flac" WAVE
INDEX 01 00:00:00
TRACK 08 AUDIO
TITLE "Lalo Bossa Nova"
PERFORMER "Quincy Jones"
INDEX 00 02:00:15
FILE "08 - Lalo Bossa Nova.flac" WAVE
INDEX 01 00:00:00
FILE "09 - Serenata.flac" WAVE
TRACK 09 AUDIO
TITLE "Serenata"
PERFORMER "Quincy Jones"
INDEX 01 00:00:00
TRACK 10 AUDIO
TITLE "Chega De Saudade"
PERFORMER "Quincy Jones"
INDEX 00 03:17:63
FILE "10 - Chega De Saudade.flac" WAVE
INDEX 01 00:00:00
TRACK 11 AUDIO
TITLE "A Taste of Honey"
PERFORMER "Quincy Jones"
INDEX 00 05:30:14
FILE "11 - A Taste of Honey.flac" WAVE
INDEX 01 00:00:00
 
Лог проверки качества
AUDIOCHECKER v2.0 beta (build 457) - by Dester - opdester@freemail.hu
~~~~~~~~~~~~~~~~~~~~~~~~~~~~~~~~~~
-=== DO NOT EDIT THIS FILE! ===-
Path: ...\1962. Quincy Jones - Big Band Bossa Nova
01 -=- 01 - Soul Bossa Nova.flac -=- CDDA (100%)
02 -=- 02 - Boogie Stop Shuffle.flac -=- CDDA (99%)
03 -=- 03 - Desafinado.flac -=- CDDA (99%)
04 -=- 04 - Manha de Carnaval.flac -=- CDDA (100%)
05 -=- 05 - Se E Tarde Me Pardoa.flac -=- CDDA (99%)
06 -=- 06 - On the Street Where You Live.flac -=- CDDA (99%)
07 -=- 07 - Samba de Una Nota So.flac -=- CDDA (100%)
08 -=- 08 - Lalo Bossa Nova.flac -=- CDDA (100%)
09 -=- 09 - Serenata.flac -=- CDDA (100%)
10 -=- 10 - Chega De Saudade.flac -=- CDDA (100%)
11 -=- 11 - A Taste of Honey.flac -=- CDDA (100%)
Summary 99,64% CDDA
195686660
 
Accurip
[CUETools log; Date: 28.03.2011 13:50:19; Version: 2.0.9]
[CTDB TOCID: UrxQ1dp.JDVc71KOHgAubU1CZ2I-] disk not present in database.
[AccurateRip ID: 000dea5b-007a0e9c-8c08600b] found.
Track [ CRC ] Status
01 [29d83832] (29/31) Accurately ripped
02 [56944f7e] (29/31) Accurately ripped
03 [b71eff48] (29/31) Accurately ripped
04 [b62fc191] (29/31) Accurately ripped
05 [616dec62] (29/31) Accurately ripped
06 [08b66088] (29/31) Accurately ripped
07 [2c6bc56a] (29/31) Accurately ripped
08 [19cf4c7d] (29/31) Accurately ripped
09 [ba6ef6b3] (29/31) Accurately ripped
10 [295b107d] (29/31) Accurately ripped
11 [d3ca17c0] (28/30) Accurately ripped
Track Peak [ CRC32 ] [W/O NULL] [ LOG ]
-- 99,9 [3F72AD88] [ADA0674B]
01 99,9 [DEAFFDC9] [E03F80C3] CRC32
02 99,9 [9D9603AA] [7ED67AB4] CRC32
03 99,9 [4F116A58] [616CC911] CRC32
04 99,9 [105F9DD5] [B5E9F4AA] CRC32
05 99,9 [4CE10A7F] [AA587406] CRC32
06 99,9 [0DB37399] [5DC9DD51] CRC32
07 99,9 [9059446E] [31F4A8D1] CRC32
08 99,9 [B1BD6001] [ACE66A73] CRC32
09 99,9 [B6D7A339] [DFBB33FB] CRC32
10 99,9 [71BB9452] [E248B61F] CRC32
11 99,9 [EF5A9B26] [638CD90D] CRC32
 
Состав
Quincy Jones (conductor);
Phil Woods (alto saxophone);
Paul Gonsalves (tenor saxophone);
Clark Terry (trumpet, flugelhorn);
Roland Kirk (flute, alto flute);
Jerome Richardson (flute, alto flute, woodwinds);
Lalo Schifrin (piano);
Jim Hall (guitar);
Chris White (bass);
Rudy Collins (drums);
Jack Del Rio, Carlos Gomez, Jose Paula (percussion).
21:03
808
Нет комментариев. Ваш будет первым!