Поиск

(Big Band, Post-Bop) Oliver Jones - From Lush To Lively - 1995, FLAC (image+.cue), lossless

(Big Band, Post-Bop) Oliver Jones - From Lush To Lively - 1995, FLAC (image+.cue), lossless
Треклист:
Oliver Jones – From Lush To Lively
Жанр: Big Band, Post-Bop
Год издания диска: 1995
Издатель (лейбл): Justin Time
Номер по каталогу: JUST 73-2
Аудиокодек: FLAC (*.flac)
Тип рипа: image+.cue
Битрейт аудио: lossless
Продолжительность: 59:59
Источник: net
Наличие сканов в содержимом раздачи: да
Треклист:
01. The Way You Look Tonight (5:36)
02. Why Think About Tomorrow (5:43)
03. Len's Den (4:34)
04. We Will Love Again (4:48)
05. Swinging On A Star (5:55)
06. Jazz Gavotte (5:30)
07. The Very Thought Of You (5:35)
08. Tetra Tetra (6:00)
09. (Our) Love Is Here To Stay (4:45)
10. Should I Love Again (4:36)
11. Blues For Helene (6:57)
Personnel:
Oliver Jones - piano
Jim Vivian - bass
Ted Warren - drums
Orchestra arranged & conducted by Rick Wilkins.
Rec.: Studio Tempo, Montreal, Canada, May 31 and June 1, 1995.
 
 
Лог создания рипа
Exact Audio Copy V0.99 prebeta 5 from 4. May 2009
EAC extraction logfile from 9. April 2010, 15:38
Oliver Jones / From Lush to Lively
Used drive  : ASUS    DRW-1608P3S   Adapter: 0  ID: 1
Read mode               : Secure
Utilize accurate stream : Yes
Defeat audio cache      : Yes
Make use of C2 pointers : No
Read offset correction                      : 48
Overread into Lead-In and Lead-Out          : No
Fill up missing offset samples with silence : Yes
Delete leading and trailing silent blocks   : No
Null samples used in CRC calculations       : Yes
Used interface                              : Native Win32 interface for Win NT & 2000
Used output format : Internal WAV Routines
Sample format      : 44.100 Hz; 16 Bit; Stereo
TOC of the extracted CD
     Track |   Start  |  Length  | Start sector | End sector
    ---------------------------------------------------------
        1  |  0:00.00 |  5:36.37 |         0    |    25236
        2  |  5:36.37 |  5:42.65 |     25237    |    50951
        3  | 11:19.27 |  4:33.38 |     50952    |    71464
        4  | 15:52.65 |  4:48.15 |     71465    |    93079
        5  | 20:41.05 |  5:55.27 |     93080    |   119731
        6  | 26:36.32 |  5:29.43 |    119732    |   144449
        7  | 32:06.00 |  5:34.50 |    144450    |   169549
        8  | 37:40.50 |  6:00.07 |    169550    |   196556
        9  | 43:40.57 |  4:44.68 |    196557    |   217924
       10  | 48:25.50 |  4:36.25 |    217925    |   238649
       11  | 53:02.00 |  6:56.45 |    238650    |   269894
Range status and errors
Selected range
     Filename G:\@@ MY WORK @@\Oliver Jones - From Lush to Lively\Oliver Jones - From Lush to Lively.wav
     Peak level 100.0 %
     Range quality 99.9 %
     Test CRC 61B00499
     Copy CRC 61B00499
     Copy OK
No errors occurred
AccurateRip summary
Track  1  accurately ripped (confidence 4)  [D3FE10BB]
Track  2  accurately ripped (confidence 4)  [DDCEED79]
Track  3  accurately ripped (confidence 4)  [A8CE560D]
Track  4  accurately ripped (confidence 4)  [E6F6BB30]
Track  5  accurately ripped (confidence 3)  [DB23D318]
Track  6  accurately ripped (confidence 4)  [5198677F]
Track  7  accurately ripped (confidence 3)  [B1961CD3]
Track  8  accurately ripped (confidence 4)  [9D5872F8]
Track  9  accurately ripped (confidence 4)  [D4A333E9]
Track 10  accurately ripped (confidence 4)  [75CD458D]
Track 11  accurately ripped (confidence 4)  [1CFD5FFA]
All tracks accurately ripped
End of status report
 
 
Содержание индексной карты (.CUE)
REM GENRE Jazz
REM DATE 1995
REM DISCID A00E0E0B
REM COMMENT "ExactAudioCopy v0.99pb5"
PERFORMER "Oliver Jones"
TITLE "From Lush To Lively"
FILE "Oliver Jones - From Lush.flac" WAVE
  TRACK 01 AUDIO
    TITLE "The Way You Look Tonight"
    PERFORMER "Oliver Jones"
    INDEX 01 00:00:00
  TRACK 02 AUDIO
    TITLE "Why Think About Tomorrow"
    PERFORMER "Oliver Jones"
    INDEX 00 05:33:32
    INDEX 01 05:36:37
  TRACK 03 AUDIO
    TITLE "Len's Den"
    PERFORMER "Oliver Jones"
    INDEX 00 11:16:47
    INDEX 01 11:19:27
  TRACK 04 AUDIO
    TITLE "We Will Love Again"
    PERFORMER "Oliver Jones"
    INDEX 00 15:49:55
    INDEX 01 15:52:65
  TRACK 05 AUDIO
    TITLE "Swinging On A Star"
    PERFORMER "Oliver Jones"
    INDEX 00 20:37:65
    INDEX 01 20:41:05
  TRACK 06 AUDIO
    TITLE "Jazz Gavotte"
    PERFORMER "Oliver Jones"
    INDEX 00 26:35:37
    INDEX 01 26:36:32
  TRACK 07 AUDIO
    TITLE "The Very Thought Of You"
    PERFORMER "Oliver Jones"
    INDEX 00 32:02:07
    INDEX 01 32:06:00
  TRACK 08 AUDIO
    TITLE "Tetra Tetra"
    PERFORMER "Oliver Jones"
    INDEX 00 37:37:22
    INDEX 01 37:40:50
  TRACK 09 AUDIO
    TITLE "(Our) Love Is Here To Stay"
    PERFORMER "Oliver Jones"
    INDEX 00 43:37:40
    INDEX 01 43:40:57
  TRACK 10 AUDIO
    TITLE "Should I Love Again"
    PERFORMER "Oliver Jones"
    INDEX 00 48:22:47
    INDEX 01 48:25:50
  TRACK 11 AUDIO
    TITLE "Blues For Helene"
    PERFORMER "Oliver Jones"
    INDEX 00 52:58:20
    INDEX 01 53:02:00
22:19
512
Нет комментариев. Ваш будет первым!