Поиск

(Big Band / Post-Bop / Latin Jazz) Omar Sosa & NDR Bigband - Ceremony - 2010, WAVPack (image+.cue), lossless

(Big Band / Post-Bop / Latin Jazz) Omar Sosa & NDR Bigband - Ceremony - 2010, WAVPack (image+.cue), lossless
Треклист:
Omar Sosa & NDR Bigband - Ceremony
Жанр: Big Band / Post-Bop / Latin Jazz
Год выпуска диска: 2010
Производитель диска: Ota Records (WVF479042)
Аудио кодек: WAVPack
Тип рипа: image+.cue
Битрейт аудио: lossless
Продолжительность: 1:02:24
Трэклист:
01. Llegada Con Elegba (3:06)
02. Chango En Esmeraldas (6:19)
03. Danzon De Tus Ojos (7:31)
04. Yemaya En Agua Larga (6:38)
05. Luz En El Cielo (8:41)
06. Cha Con Marimba (5:43)
07. Mi Tradicion (6:28)
08. Carambaba (7:54)
09. Monkuru (7:08)
10. Salida Con Elegba (2:56)
За рип большое спасибо scalamus
.
 
EAC Log
Exact Audio Copy V0.99 prebeta 5 from 4. May 2009
EAC extraction logfile from 3. March 2010, 18:58
Omar Sosa / Ceremony
Used drive : HL-DT-STDVDRAM GSA-4165B Adapter: 3 ID: 0
Read mode : Secure
Utilize accurate stream : Yes
Defeat audio cache : Yes
Make use of C2 pointers : No
Read offset correction : 667
Overread into Lead-In and Lead-Out : No
Fill up missing offset samples with silence : Yes
Delete leading and trailing silent blocks : No
Null samples used in CRC calculations : Yes
Used interface : Installed external ASPI interface
Used output format : Internal WAV Routines
Sample format : 44.100 Hz; 16 Bit; Stereo
TOC of the extracted CD
Track | Start | Length | Start sector | End sector
---------------------------------------------------------
1 | 0:00.00 | 3:05.70 | 0 | 13944
2 | 3:05.70 | 6:19.06 | 13945 | 42375
3 | 9:25.01 | 7:30.69 | 42376 | 76194
4 | 16:55.70 | 6:38.01 | 76195 | 106045
5 | 23:33.71 | 8:41.08 | 106046 | 145128
6 | 32:15.04 | 5:43.18 | 145129 | 170871
7 | 37:58.22 | 6:28.14 | 170872 | 199985
8 | 44:26.36 | 7:53.53 | 199986 | 235513
9 | 52:20.14 | 7:07.56 | 235514 | 267594
10 | 59:27.70 | 2:56.06 | 267595 | 280800
Range status and errors
Selected range
Filename C:\Omar Sosa - Ceremony.wav
Peak level 96.6 %
Range quality 100.0 %
Copy CRC EFDFCAC6
Copy OK
No errors occurred
End of status report
 
Personnel
Download available for power users only.
08:25
379
Нет комментариев. Ваш будет первым!