Вы используете незарегистрированную версию компонента "Вкладки"!

Поиск

(Big Band, Easy Listening) Michel Legrand & His Orchestra - I Love Paris (1954) - 1994, FLAC (image+.cue), lossless

(Big Band, Easy Listening) Michel Legrand & His Orchestra - I Love Paris (1954) - 1994, FLAC (image+.cue), lossless
Треклист:
Michel Legrand & His Orchestra / I Love Paris (1954)
Жанр: Big Band, Easy Listening
Год издания диска: 1994
Издатель (лейбл): Master Sound/Legacy
Номер по каталогу: SK 64367
Аудиокодек: FLAC (*.flac)
Тип рипа: image+.cue
Битрейт аудио: lossless
Продолжительность: 39:40
Источник (релизер): web
Наличие сканов в содержимом раздачи: да
Треклист:
01. I Love Paris (2:37)
02. Mademoiselle De Paris (2:29)
03. Paris (1:48)
04. Autumn Leaves (Les Feuilles Mortes) (3:31)
05. Under The Bridges Of Paris (Sous Les Ponts De Paris) (1:09)
06. Le Seine (4:30)
07. Paris In The Spring (1:57)
08. Paris Canaille (2:11)
09. April In Paris (3:38)
10. A Paris (2:08)
11. La Vie En Rose (2:19)
12. Under Paris Skies (Sous Le Ciel De Paris) (2:26)
13. Paris, Je T'Aime (Paris, Stay The Same) (1:34)
14. The Song From 'Moulin Rouge' (3:40)
15. The Last Time I Saw Paris (2:47)
16. I Love Paris (Reprise) (0:58)
 
Лог создания рипа
Exact Audio Copy V0.99 prebeta 4 from 23. January 2008
EAC extraction logfile from 23. May 2009, 20:07
Michel Legrand & His Orchestra / I Love Paris {Gold}
Used drive : ASUS DVD-E818AT Adapter: 5 ID: 0
Read mode : Secure
Utilize accurate stream : Yes
Defeat audio cache : No
Make use of C2 pointers : Yes
Read offset correction : 6
Overread into Lead-In and Lead-Out : No
Fill up missing offset samples with silence : Yes
Delete leading and trailing silent blocks : No
Null samples used in CRC calculations : No
Used interface : Native Win32 interface for Win NT & 2000
Used output format : User Defined Encoder
Selected bitrate : 1024 kBit/s
Quality : High
Add ID3 tag : No
Command line compressor : D:\Program Files\Exact Audio Copy\FLAC\FLAC.EXE
Additional command line options : -6 -V -T "ARTIST=%a" -T "TITLE=%t" -T "ALBUM=%g" -T "DATE=%y" -T "TRACKNUMBER=%n" -T "GENRE=%m" -T "COMMENT=%e" %s -o %d
TOC of the extracted CD
Track | Start | Length | Start sector | End sector
---------------------------------------------------------
1 | 0:00.00 | 2:37.03 | 0 | 11777
2 | 2:37.03 | 2:28.52 | 11778 | 22929
3 | 5:05.55 | 1:48.25 | 22930 | 31054
4 | 6:54.05 | 3:30.45 | 31055 | 46849
5 | 10:24.50 | 1:08.60 | 46850 | 52009
6 | 11:33.35 | 4:30.08 | 52010 | 72267
7 | 16:03.43 | 1:56.62 | 72268 | 81029
8 | 18:00.30 | 2:11.35 | 81030 | 90889
9 | 20:11.65 | 3:37.50 | 90890 | 107214
10 | 23:49.40 | 2:08.00 | 107215 | 116814
11 | 25:57.40 | 2:18.63 | 116815 | 127227
12 | 28:16.28 | 2:25.40 | 127228 | 138142
13 | 30:41.68 | 1:34.02 | 138143 | 145194
14 | 32:15.70 | 3:39.40 | 145195 | 161659
15 | 35:55.35 | 2:46.40 | 161660 | 174149
16 | 38:42.00 | 0:58.23 | 174150 | 178522
Range status and errors
Selected range
Filename F:\4\Michel Legrand & His Orchestra - I Love Paris {Gold}.wav
Peak level 95.7 %
Range quality 99.9 %
Test CRC C4966193
Copy CRC C4966193
Copy OK
No errors occurred
AccurateRip summary
Track 1 accurately ripped (confidence 2) [77CB537A]
Track 2 accurately ripped (confidence 2) [0DCA38C0]
Track 3 accurately ripped (confidence 2) [4C7E2734]
Track 4 accurately ripped (confidence 2) [53B6A723]
Track 5 accurately ripped (confidence 2) [0E9E9F69]
Track 6 accurately ripped (confidence 2) [441A1C7A]
Track 7 accurately ripped (confidence 2) [05FF3104]
Track 8 accurately ripped (confidence 2) [926BBAD1]
Track 9 accurately ripped (confidence 2) [96D3063C]
Track 10 accurately ripped (confidence 2) [995D342B]
Track 11 accurately ripped (confidence 2) [555D034D]
Track 12 accurately ripped (confidence 2) [2056B130]
Track 13 accurately ripped (confidence 2) [90708962]
Track 14 accurately ripped (confidence 2) [F850FADC]
Track 15 accurately ripped (confidence 2) [52D84E10]
Track 16 accurately ripped (confidence 2) [D43C72A5]
All tracks accurately ripped
End of status report
 
Содержание индексной карты (.CUE)
REM GENRE
REM DATE 1954
REM DISCID E1094C10
REM COMMENT ExactAudioCopy v0.99pb4
CATALOG 0000000000000
PERFORMER "Michel Legrand & His Orchestra"
TITLE "I Love Paris"
FILE "Michel Legrand & His Orchestra - I Love Paris {Gold}.flac" WAVE
TRACK 01 AUDIO
TITLE "I Love Paris"
ISRC 000000000000
INDEX 01 00:00:00
TRACK 02 AUDIO
TITLE "Mademoiselle De Paris"
ISRC 000000000000
INDEX 01 02:37:03
TRACK 03 AUDIO
TITLE "Paris"
ISRC 000000000000
INDEX 01 05:05:55
TRACK 04 AUDIO
TITLE "Autumn Leaves (Les Feuilles Mortes)"
ISRC 000000000000
INDEX 01 06:54:05
TRACK 05 AUDIO
TITLE "Under The Bridges Of Paris (Sous Les Ponts De Paris)"
ISRC 000000000000
INDEX 01 10:24:50
TRACK 06 AUDIO
TITLE "Le Seine"
ISRC 000000000000
INDEX 01 11:33:35
TRACK 07 AUDIO
TITLE "Paris In The Spring"
ISRC 000000000000
INDEX 01 16:03:43
TRACK 08 AUDIO
TITLE "Paris Canaille"
ISRC 000000000000
INDEX 01 18:00:30
TRACK 09 AUDIO
TITLE "April In Paris"
ISRC 000000000000
INDEX 00 20:09:38
INDEX 01 20:11:65
TRACK 10 AUDIO
TITLE "A Paris"
ISRC 000000000000
INDEX 01 23:49:40
TRACK 11 AUDIO
TITLE "La Vie En Rose"
ISRC 000000000000
INDEX 01 25:57:40
TRACK 12 AUDIO
TITLE "Under Paris Skies (Sous Le Ciel De Paris)"
ISRC 000000000000
INDEX 01 28:16:28
TRACK 13 AUDIO
TITLE "Paris, Je T'Aime (Paris, Stay The Same)"
ISRC 000000000000
INDEX 00 30:41:65
INDEX 01 30:41:68
TRACK 14 AUDIO
TITLE "The Song From 'Moulin Rouge'"
ISRC 000000000000
INDEX 00 32:15:68
INDEX 01 32:15:70
TRACK 15 AUDIO
TITLE "The Last Time I Saw Paris"
ISRC 000000000000
INDEX 01 35:55:35
TRACK 16 AUDIO
TITLE "I Love Paris (Reprise)"
ISRC 000000000000
INDEX 01 38:42:00
Any questions - support@pro-jazz.com. Есть вопросы - support@pro-jazz.com
01:08
340
Нет комментариев. Ваш будет первым!