Поиск

(Big Band) [CD] Thad Jones • Mel Lewis - Consummation (1970) - 2002, FLAC (tracks+.cue), lossless

(Big Band) [CD] Thad Jones • Mel Lewis - Consummation (1970) - 2002, FLAC (tracks+.cue), lossless
Треклист:
Thad Jones • Mel Lewis - Consummation (1970)
Жанр: Big Band
Носитель: CD
Год издания: 2002
Издатель (лейбл): Blue Note
Номер по каталогу: 7243 5 38226 2
Аудиокодек: FLAC (*.flac)
Тип рипа: tracks+.cue
Битрейт аудио: lossless
Продолжительность: 46:35
Источник (релизер): What.cd (weareborg)
Наличие сканов в содержимом раздачи: нет
Треклист:
01. Dedication (5:14)
02. It Only Happens Every Time (3:07)
03. Tiptoe (6:42)
04. A Child Is Born (4:09)
05. Us (3:37)
06. Ahunk Ahunk (7:58)
07. Fingers (10:39)
08. Consummation (5:10)
 
Лог создания рипа
Exact Audio Copy V0.99 prebeta 4 from 23. January 2008
EAC extraction logfile from 26. March 2009, 16:18
Thad Jones (1923-1986) Mel Lewis (1929-1990) / Consummation 1970
Used drive  : ASUS    DRW-2014S1   Adapter: 4  ID: 0
Read mode               : Secure
Utilize accurate stream : Yes
Defeat audio cache      : Yes
Make use of C2 pointers : No
Read offset correction                      : 6
Overread into Lead-In and Lead-Out          : No
Fill up missing offset samples with silence : Yes
Delete leading and trailing silent blocks   : No
Null samples used in CRC calculations       : Yes
Used interface                              : Installed external ASPI interface
Gap handling                                : Appended to previous track
Used output format              : User Defined Encoder
Selected bitrate                : 128 kBit/s
Quality                         : High
Add ID3 tag                     : No
Command line compressor         : C:\Program Files\FLAC\flac.exe
Additional command line options : -V -8 -T "artist=%a" -T "title=%t" -T "album=%g" -T "date=%y" -T "tracknumber=%n" -T "genre=%m" %s
TOC of the extracted CD
     Track |   Start  |  Length  | Start sector | End sector
    ---------------------------------------------------------
        1  |  0:00.00 |  5:13.67 |         0    |    23541
        2  |  5:13.67 |  3:07.05 |     23542    |    37571
        3  |  8:20.72 |  6:42.03 |     37572    |    67724
        4  | 15:03.00 |  4:09.12 |     67725    |    86411
        5  | 19:12.12 |  3:37.05 |     86412    |   102691
        6  | 22:49.17 |  7:57.55 |    102692    |   138521
        7  | 30:46.72 | 10:38.53 |    138522    |   186424
        8  | 41:25.50 |  5:09.60 |    186425    |   209659
Track  1
     Filename C:\EACRIPS\Thad Jones (1923-1986) Mel Lewis (1929-1990) - 2002 - Consummation 1970\01 - Dedication.wav
     Pre-gap length  0:00:02.00
     Peak level 92.2 %
     Track quality 100.0 %
     Test CRC DE8AD256
     Copy CRC DE8AD256
     Accurately ripped (confidence 3)  [B785F6D4]
     Copy OK
Track  2
     Filename C:\EACRIPS\Thad Jones (1923-1986) Mel Lewis (1929-1990) - 2002 - Consummation 1970\02 - It Only Happens Every Time.wav
     Pre-gap length  0:00:01.82
     Peak level 98.8 %
     Track quality 100.0 %
     Test CRC C9BF32D2
     Copy CRC C9BF32D2
     Accurately ripped (confidence 3)  [30FB15EA]
     Copy OK
Track  3
     Filename C:\EACRIPS\Thad Jones (1923-1986) Mel Lewis (1929-1990) - 2002 - Consummation 1970\03 - Tiptoe.wav
     Pre-gap length  0:00:02.29
     Peak level 94.4 %
     Track quality 100.0 %
     Test CRC F7BD1820
     Copy CRC F7BD1820
     Accurately ripped (confidence 3)  [0E0508F6]
     Copy OK
Track  4
     Filename C:\EACRIPS\Thad Jones (1923-1986) Mel Lewis (1929-1990) - 2002 - Consummation 1970\04 - A Child is Born.wav
     Pre-gap length  0:00:02.73
     Peak level 89.7 %
     Track quality 100.0 %
     Test CRC 9E6B613B
     Copy CRC 9E6B613B
     Accurately ripped (confidence 3)  [C0E2FFC3]
     Copy OK
Track  5
     Filename C:\EACRIPS\Thad Jones (1923-1986) Mel Lewis (1929-1990) - 2002 - Consummation 1970\05 - Us.wav
     Pre-gap length  0:00:02.69
     Peak level 92.5 %
     Track quality 100.0 %
     Test CRC C30A0841
     Copy CRC C30A0841
     Accurately ripped (confidence 3)  [AB21E922]
     Copy OK
Track  6
     Filename C:\EACRIPS\Thad Jones (1923-1986) Mel Lewis (1929-1990) - 2002 - Consummation 1970\06 - Ahunk Ahunk.wav
     Pre-gap length  0:00:02.62
     Peak level 94.4 %
     Track quality 100.0 %
     Test CRC 6CCC49E3
     Copy CRC 6CCC49E3
     Accurately ripped (confidence 2)  [A5800C7D]
     Copy OK
Track  7
     Filename C:\EACRIPS\Thad Jones (1923-1986) Mel Lewis (1929-1990) - 2002 - Consummation 1970\07 - Fingers.wav
     Pre-gap length  0:00:02.29
     Peak level 98.5 %
     Track quality 100.0 %
     Test CRC D4E946BB
     Copy CRC D4E946BB
     Accurately ripped (confidence 3)  [168FDCA2]
     Copy OK
Track  8
     Filename C:\EACRIPS\Thad Jones (1923-1986) Mel Lewis (1929-1990) - 2002 - Consummation 1970\08 - Consummation.wav
     Pre-gap length  0:00:02.30
     Peak level 91.6 %
     Track quality 99.9 %
     Test CRC 9341BB1B
     Copy CRC 9341BB1B
     Accurately ripped (confidence 3)  [ADA597CA]
     Copy OK
All tracks accurately ripped
No errors occurred
End of status report
 
 
Содержание индексной карты (.CUE)
REM GENRE Jazz
REM DATE 1970
REM DISCID 610AEB08
REM COMMENT "ExactAudioCopy v0.99pb4"
PERFORMER "Thad Jones & Mel Lewis Jazz Orchestra"
TITLE "Consummation"
FILE "01. Dedication.wav" WAVE
  TRACK 01 AUDIO
    TITLE "Dedication"
    PERFORMER "Thad Jones & Mel Lewis Jazz Orchestra"
    INDEX 01 00:00:00
  TRACK 02 AUDIO
    TITLE "It Only Happens Every Time"
    PERFORMER "Thad Jones & Mel Lewis Jazz Orchestra"
    INDEX 00 05:12:05
FILE "02. It Only Happens Every Time.wav" WAVE
    INDEX 01 00:00:00
  TRACK 03 AUDIO
    TITLE "Tiptoe"
    PERFORMER "Thad Jones & Mel Lewis Jazz Orchestra"
    INDEX 00 03:04:58
FILE "03. Tiptoe.wav" WAVE
    INDEX 01 00:00:00
  TRACK 04 AUDIO
    TITLE "A Child Is Born"
    PERFORMER "Thad Jones & Mel Lewis Jazz Orchestra"
    INDEX 00 06:39:23
FILE "04. A Child Is Born.wav" WAVE
    INDEX 01 00:00:00
  TRACK 05 AUDIO
    TITLE "Us"
    PERFORMER "Thad Jones & Mel Lewis Jazz Orchestra"
    INDEX 00 04:06:35
FILE "05. Us.wav" WAVE
    INDEX 01 00:00:00
  TRACK 06 AUDIO
    TITLE "Ahunk Ahunk"
    PERFORMER "Thad Jones & Mel Lewis Jazz Orchestra"
    INDEX 00 03:34:33
FILE "06. Ahunk Ahunk.wav" WAVE
    INDEX 01 00:00:00
  TRACK 07 AUDIO
    TITLE "Fingers"
    PERFORMER "Thad Jones & Mel Lewis Jazz Orchestra"
    INDEX 00 07:55:33
FILE "07. Fingers.wav" WAVE
    INDEX 01 00:00:00
  TRACK 08 AUDIO
    TITLE "Consummation"
    PERFORMER "Thad Jones & Mel Lewis Jazz Orchestra"
    INDEX 00 10:36:30
FILE "08. Consummation.wav" WAVE
    INDEX 01 00:00:00
 
 
Allaboutjazz.com
Allaboutjazz.com wrote:
When it came to progressive big bands during the '60s, few ensembles could boast the kind of staying power and muscle of the Thad Jones-Mel Lewis Jazz Orchestra. With some of the biggest names in the business as part of the ensemble's regular roster and the uniformly exceptional output of writer Thad Jones, this band was successful at a time when economics were making it hard for even established organizations to stay afloat. Unfortunately, the great legacy of the Thad and Mel band was documented on the Solid State label and aside from a Mosaic boxed set compiling that material which is long out-of-print, none of the group's historic output for the label is available on disc (let's modify that slightly in that you can get CD reissues of the Joe Williams and Ruth Brown sets that are backed by the band, but these are of a different set of cloth).
Helping to rectify things ever so slightly is the recent reissue of Consummation, the band's one and only release on the Blue Note label. But this was really not a Blue Note set in the truest fashion. Solid State's own Sonny Lester in fact, produced it. Furthermore, engineer Don Hahn would be at the dials, foreshadowing his work on later Jones-Lewis projects for A&M Horizon. Eight distinctive Jones originals make up the program here, although only "A Child Is Born" really caught on. Too bad because cuts like "Us" and "Ahunk Ahunk" slide between funk and rock grooves in way that's always intuitive and never cloying. And for up tempo swinging of the high octane variety there's an almost eleven minute version of "Fingers".
Aside from a solid rhythm section which features Roland Hanna and Richard Davis, there are a number of star soloists including Pepper Adams, Joe Farrell, Marvin Stamm, Jimmy Knepper, Eddie Daniels, and Howard Johnson. So until those Solid States come out again in some form, pick up Consummation and enjoy the vibes.
 
 
Review by Scott Yanow
Of the many albums recorded by the Thad Jones/Mel Lewis Orchestra, this was the greatest. Reissued on CD as part of a large Mosaic box set, this set introduced Jones' best-known composition, "A Child Is Born," and also has a colorful rendition of his sly "Tiptoe," and finds the big band ripping the roof off during the lengthy and very exciting "Fingers." The all-star cast (which includes flugelhornist Jones, drummer Lewis, trumpeter Marvin Stamm, trombonist Jimmy Knepper, tenor great Billy Harper, the reeds of Jerome Richardson, Jerry Dodgion and Eddie Daniels, keyboardist Roland Hanna, and bassist Richard Davis, among others) is well served by Thad Jones' inventive and swinging arrangements. A classic.
 
 
Состав
Thad Jones (flugelhorn); Snooky Young, Danny Moore, Al Porcino, Marvin Stamm (trumpet); Eddie Bert, Benny Powell, Jimmy Knepper (trombone); Cliff Heather (bass trombone); Jerome Richardson (soprano, alto sax, flute); Jerry Dodgion (alto sax, clarinet, flute); Billy Harper (tenor sax, flute); Eddie Daniels (tenor sax, clarinet, flute); Richie Kamuca (baritone sax, clarinet); Pepper Adams, Joe Farrell(baritone sax); Roland Hanna (acoustic, electric piano); Richard Davis (acoustic, electric bass); Mel Lewis (drums); Jimmy Buffington, Earl Chapin, Dick Berg, Julius Watkins(French horn); Howard Johnson (tuba); David Spinozza (guitar)
По всем вопросам пишите личное сообщение пользователю M0p94ok.
05:57
437
Нет комментариев. Ваш будет первым!