Вы используете незарегистрированную версию компонента "Вкладки"!

Поиск

(Avantgarde/Free jazz, Avantgarde fusion) Perception — "Perception", "Perception & Friends", "Mestari" — 1971-73; FLAC (image+.cue), lossless

(Avantgarde/Free jazz, Avantgarde fusion) Perception — "Perception", "Perception & Friends", "Mestari" — 1971-73; FLAC (image+.cue), lossless
Треклист:
Perception
Perception (1971),
Perception & Friends (1972), Mestari (1973)

Жанр: Avantgarde/Free jazz, Jazz rock, Avantgarde fusion
Страна исполнителя: Multi-national
Годы выпуска дискoв: 2001, 2012
Производитель дисков: Italy (Mellow Records), France (Musea/Great Winds)
Номера по каталогу: указаны ниже
Аудио кодек: FLAC
Тип рипа: image+.cue
Битрейт аудио: lossless
Продолжительность: 02:27:23
Наличие сканов в содержимом раздачи: да
Источник: моя коллекция CD
 
Perception (1971) — 2001 reissue, Mellow Records MMP 415

Tracks:
01. Chirato [06:50.880]
02. Phénobarbital/Septième Songe [12:44.880]
03. Debora [07:57.093]
04. Enitram/Narcisse [11:48.720]
Line-up:
Jeff (Yochk’o) Seffer — bass clarinet, soprano/tenor saxophones
Siegfried Kessler — piano, electric piano
Didier Levallet — double bass
Jean-My Truong — drums
 
CUE-файл
Код:
REM GENRE "Free Jazz/Jazz Rock/Avantgarde Fusion"
REM DATE 1971
REM DISCID 2A093E04
REM COMMENT "ExactAudioCopy v0.99pb4"
PERFORMER "PERCEPTION"
TITLE "Perception"
FILE "PERCEPTION - 1971 - Perception [2001, Mellow Records, MMP 415].wav" WAVE
  TRACK 01 AUDIO
    TITLE "Chirato"
    PERFORMER "PERCEPTION"
    FLAGS DCP
    INDEX 01 00:00:00
  TRACK 02 AUDIO
    TITLE "Phenobarbital/Septieme Songe"
    PERFORMER "PERCEPTION"
    FLAGS DCP
    INDEX 00 06:50:66
    INDEX 01 06:52:36
  TRACK 03 AUDIO
    TITLE "Debora"
    PERFORMER "PERCEPTION"
    FLAGS DCP
    INDEX 00 19:37:27
    INDEX 01 19:38:72
  TRACK 04 AUDIO
    TITLE "Enitram/Narcisse"
    PERFORMER "PERCEPTION"
    FLAGS DCP
    INDEX 00 27:36:04
    INDEX 01 27:37:49
 
CUE-файл для проигрывания
Код:
REM GENRE "Free Jazz/Jazz Rock/Avantgarde Fusion"
REM DATE 1971
REM DISCID 2A093E04
REM COMMENT "ExactAudioCopy v0.99pb4"
PERFORMER "PERCEPTION"
TITLE "Perception"
FILE "PERCEPTION - 1971 - Perception [2001, Mellow Records, MMP 415].flac" WAVE
  TRACK 01 AUDIO
    TITLE "Chirato"
    PERFORMER "PERCEPTION"
    FLAGS DCP
    INDEX 01 00:00:00
  TRACK 02 AUDIO
    TITLE "Phénobarbital/Septième Songe"
    PERFORMER "PERCEPTION"
    FLAGS DCP
    INDEX 00 06:50:66
    INDEX 01 06:52:36
  TRACK 03 AUDIO
    TITLE "Debora"
    PERFORMER "PERCEPTION"
    FLAGS DCP
    INDEX 00 19:37:27
    INDEX 01 19:38:72
  TRACK 04 AUDIO
    TITLE "Enitram/Narcisse"
    PERFORMER "PERCEPTION"
    FLAGS DCP
    INDEX 00 27:36:04
    INDEX 01 27:37:49
 
Отчёт EAC
Код:
Exact Audio Copy V0.99 prebeta 4 from 23. January 2008
Отчёт EAC об извлечении, выполненном 29. ноября 2012, 17:06
PERCEPTION / Perception
Дисковод: TSSTcorpCD/DVDW SH-S183A   Adapter: 4  ID: 1
Режим чтения                 : Достоверность
Использование точного потока : Да
Отключение кэша аудио        : Да
Использование указателей C2  : Нет
Коррекция смещения при чтении                     : 6
Способность читать области Lead-in и Lead-out     : Нет
Заполнение пропущенных сэмплов тишиной            : Да
Удаление блоков с тишиной в начале и конце        : Нет
При вычислениях CRC использовались нулевые сэмплы : Да
Интерфейс                                         : Встроенный Win32-интерфейс для Win NT/2000
Выходной формат : Внутренние WAV-операции
Формат сэмплов  : 44.100 Гц; 16 бит; стерео
TOC извлечённого CD
     Трек |   Старт  | Длительность | Начальный сектор | Конечный сектор
    ---------------------------------------------------------------------
       1  |  0:00.00 |    6:52.36   |           0      |      30935
       2  |  6:52.36 |   12:46.36   |       30936      |      88421
       3  | 19:38.72 |    7:58.52   |       88422      |     124323
       4  | 27:37.49 |   11:48.54   |      124324      |     177477
Характеристики диапазона извлечения и сообщения об ошибках
Выбранный диапазон
     Имя файла D:\TEMP\PERCEPTION - 1971 - Perception [2001, Mellow Records, MMP 415].wav
     Пиковый уровень 90.7 %
     Качество диапазона 100.0 %
     CRC теста 1EC1F9D6
     CRC копии 1EC1F9D6
     Копирование... OK
Ошибок не произошло
AccurateRip: сводка
Трек  1  нет в базе данных
Трек  2  нет в базе данных
Трек  3  нет в базе данных
Трек  4  нет в базе данных
Ни одного трека нет в базе AccurateRip
Конец отчёта
 
Perception & Friends (1972) / Mestari (1973) — 2012 2CD reissue, Great Winds GW3156


 
CD 1: Perception & Friends (1972)

Tracks:
01. Le Horla [09:39.493]
02. The Outsider [05:18.467]
03. Mamelai [03:39.293]
04. Adeqxi/Ville d’Avril [10:38.853]
05. Colima [09:33.227]
06. Le Horla (*) [07:23.120] — alternate version
07. Improvisation Marine (*) [06:12.493]
Line-up:
Yochk’o Seffer — bass clarinet (1, 2, 6), malabar (1), sopranino (3, 4)/tenor (5) saxophones, piccolo (7)
Siegfried Kessler — clavinet (1)
Didier Levallet — double bass
Jean-My Truong (expt. 7) — drums
Friends:
Jean-Charles Capon — cello (1, 3, 6)
Kent Carter — cello (1)
Jean-François Jenny-Clark — cello (3, 6)
Manuel Villaroel — piano (2–5), electric piano (4)
Teddy Lasry — clarinet (2), soprano saxophone (5)
Louis Toesca — trumpet (5)
Daniel Brulé — trombone (5)
 
CUE-файл
Код:
REM GENRE "Free Jazz/Jazz Rock/Avantgarde Fusion"
REM DATE 1972
REM DISCID 500C6507
REM COMMENT "ExactAudioCopy v0.99pb4"
PERFORMER "PERCEPTION"
TITLE "Perception & Friends"
FILE "PERCEPTION - 1972 - Perception & Friends [2012, Great Winds GW3156].wav" WAVE
  TRACK 01 AUDIO
    TITLE "Le Horla"
    PERFORMER "PERCEPTION"
    INDEX 01 00:00:00
  TRACK 02 AUDIO
    TITLE "The Outsider"
    PERFORMER "PERCEPTION"
    INDEX 00 09:39:37
    INDEX 01 09:42:65
  TRACK 03 AUDIO
    TITLE "Mamelai"
    PERFORMER "PERCEPTION"
    INDEX 00 15:01:25
    INDEX 01 15:05:18
  TRACK 04 AUDIO
    TITLE "Adeqxi/Ville d'Avril"
    PERFORMER "PERCEPTION"
    INDEX 00 18:44:40
    INDEX 01 18:48:26
  TRACK 05 AUDIO
    TITLE "Colima"
    PERFORMER "PERCEPTION"
    INDEX 00 29:27:15
    INDEX 01 29:30:64
  TRACK 06 AUDIO
    TITLE "Le Horla [*][alternate]"
    PERFORMER "PERCEPTION"
    INDEX 00 39:04:06
    INDEX 01 39:08:04
  TRACK 07 AUDIO
    TITLE "Improvisation Marine [*]"
    PERFORMER "PERCEPTION"
    INDEX 00 46:31:13
    INDEX 01 46:41:22
 
CUE-файл для проигрывания
Код:
REM GENRE "Free Jazz/Jazz Rock/Avantgarde Fusion"
REM DATE 1972
REM DISCID 500C6507
REM COMMENT "ExactAudioCopy v0.99pb4"
PERFORMER "PERCEPTION"
TITLE "Perception & Friends"
FILE "PERCEPTION - 1972 - Perception & Friends [2012, Great Winds GW3156].flac" WAVE
  TRACK 01 AUDIO
    TITLE "Le Horla"
    PERFORMER "PERCEPTION"
    INDEX 01 00:00:00
  TRACK 02 AUDIO
    TITLE "The Outsider"
    PERFORMER "PERCEPTION"
    INDEX 00 09:39:37
    INDEX 01 09:42:65
  TRACK 03 AUDIO
    TITLE "Mamelai"
    PERFORMER "PERCEPTION"
    INDEX 00 15:01:25
    INDEX 01 15:05:18
  TRACK 04 AUDIO
    TITLE "Adeqxi/Ville d’Avril"
    PERFORMER "PERCEPTION"
    INDEX 00 18:44:40
    INDEX 01 18:48:26
  TRACK 05 AUDIO
    TITLE "Colima"
    PERFORMER "PERCEPTION"
    INDEX 00 29:27:15
    INDEX 01 29:30:64
  TRACK 06 AUDIO
    TITLE "Le Horla [*][alternate]"
    PERFORMER "PERCEPTION"
    INDEX 00 39:04:06
    INDEX 01 39:08:04
  TRACK 07 AUDIO
    TITLE "Improvisation Marine [*]"
    PERFORMER "PERCEPTION"
    INDEX 00 46:31:13
    INDEX 01 46:41:22
 
Отчёт EAC
Код:
Exact Audio Copy V0.99 prebeta 4 from 23. January 2008
Отчёт EAC об извлечении, выполненном 1. декабря 2012, 19:08
PERCEPTION / Perception & Friends
Дисковод: TSSTcorpCD/DVDW SH-S183A   Adapter: 4  ID: 1
Режим чтения                 : Достоверность
Использование точного потока : Да
Отключение кэша аудио        : Да
Использование указателей C2  : Нет
Коррекция смещения при чтении                     : 6
Способность читать области Lead-in и Lead-out     : Нет
Заполнение пропущенных сэмплов тишиной            : Да
Удаление блоков с тишиной в начале и конце        : Нет
При вычислениях CRC использовались нулевые сэмплы : Да
Интерфейс                                         : Встроенный Win32-интерфейс для Win NT/2000
Выходной формат : Внутренние WAV-операции
Формат сэмплов  : 44.100 Гц; 16 бит; стерео
TOC извлечённого CD
     Трек |   Старт  | Длительность | Начальный сектор | Конечный сектор
    ---------------------------------------------------------------------
       1  |  0:00.00 |    9:42.65   |           0      |      43714
       2  |  9:42.65 |    5:22.28   |       43715      |      67892
       3  | 15:05.18 |    3:43.08   |       67893      |      84625
       4  | 18:48.26 |   10:42.38   |       84626      |     132813
       5  | 29:30.64 |    9:37.15   |      132814      |     176103
       6  | 39:08.04 |    7:33.18   |      176104      |     210096
       7  | 46:41.22 |    6:12.37   |      210097      |     238033
Характеристики диапазона извлечения и сообщения об ошибках
Выбранный диапазон
     Имя файла D:\TEMP\PERCEPTION - 1972 - Perception & Friends [2012, Great Winds GW3156].wav
     Пиковый уровень 89.1 %
     Качество диапазона 100.0 %
     CRC теста 0628B240
     CRC копии 0628B240
     Копирование... OK
Ошибок не произошло
AccurateRip: сводка
Трек  1  нет в базе данных
Трек  2  нет в базе данных
Трек  3  нет в базе данных
Трек  4  нет в базе данных
Трек  5  нет в базе данных
Трек  6  нет в базе данных
Трек  7  нет в базе данных
Ни одного трека нет в базе AccurateRip
Конец отчёта
 
CD 2: Mestari (1973)

Tracks:
01. Chott Djerid [12:11.200]
02. Trabla Air [10:42.000]
03. Mestari [18:57.187]
04. Waiting For Moby Dick (*) [12:52.387]
Line-up:
Yochk’o Seffer — bass clarinet, piccolo, sopranino/tenor saxophones, malabar
Siegfried Kessler (expt. 4) — electric piano, clavinet
Didier Levallet — double bass
Jean-My Truong (expt. 4) — drums
 
CUE-файл
Код:
REM GENRE "Free Jazz/Jazz Rock/Avantgarde Fusion"
REM DATE 1973
REM DISCID 310CE704
REM COMMENT "ExactAudioCopy v0.99pb4"
PERFORMER "PERCEPTION"
TITLE "Mestari"
FILE "PERCEPTION - 1973 - Mestari [2012, Great Winds GW3156].wav" WAVE
  TRACK 01 AUDIO
    TITLE "Chott Djerid"
    PERFORMER "PERCEPTION"
    INDEX 01 00:00:00
  TRACK 02 AUDIO
    TITLE "Trabla Air"
    PERFORMER "PERCEPTION"
    INDEX 00 12:11:15
    INDEX 01 12:16:27
  TRACK 03 AUDIO
    TITLE "Mestari"
    PERFORMER "PERCEPTION"
    INDEX 00 22:58:27
    INDEX 01 23:03:25
  TRACK 04 AUDIO
    TITLE "Waiting For Moby Dick [*]"
    PERFORMER "PERCEPTION"
    INDEX 00 42:00:39
    INDEX 01 42:10:48
 
CUE-файл для проигрывания
Код:
REM GENRE "Free Jazz/Jazz Rock/Avantgarde Fusion"
REM DATE 1973
REM DISCID 310CE704
REM COMMENT "ExactAudioCopy v0.99pb4"
PERFORMER "PERCEPTION"
TITLE "Mestari"
FILE "PERCEPTION - 1973 - Mestari [2012, Great Winds GW3156].flac" WAVE
  TRACK 01 AUDIO
    TITLE "Chott Djerid"
    PERFORMER "PERCEPTION"
    INDEX 01 00:00:00
  TRACK 02 AUDIO
    TITLE "Trabla Air"
    PERFORMER "PERCEPTION"
    INDEX 00 12:11:15
    INDEX 01 12:16:27
  TRACK 03 AUDIO
    TITLE "Mestari"
    PERFORMER "PERCEPTION"
    INDEX 00 22:58:27
    INDEX 01 23:03:25
  TRACK 04 AUDIO
    TITLE "Waiting For Moby Dick [*]"
    PERFORMER "PERCEPTION"
    INDEX 00 42:00:39
    INDEX 01 42:10:48
 
Отчёт EAC
Код:
Exact Audio Copy V0.99 prebeta 4 from 23. January 2008
Отчёт EAC об извлечении, выполненном 1. декабря 2012, 19:37
PERCEPTION / Mestari
Дисковод: TSSTcorpCD/DVDW SH-S183A   Adapter: 4  ID: 1
Режим чтения                 : Достоверность
Использование точного потока : Да
Отключение кэша аудио        : Да
Использование указателей C2  : Нет
Коррекция смещения при чтении                     : 6
Способность читать области Lead-in и Lead-out     : Нет
Заполнение пропущенных сэмплов тишиной            : Да
Удаление блоков с тишиной в начале и конце        : Нет
При вычислениях CRC использовались нулевые сэмплы : Да
Интерфейс                                         : Встроенный Win32-интерфейс для Win NT/2000
Выходной формат : Внутренние WAV-операции
Формат сэмплов  : 44.100 Гц; 16 бит; стерео
TOC извлечённого CD
     Трек |   Старт  | Длительность | Начальный сектор | Конечный сектор
    ---------------------------------------------------------------------
       1  |  0:00.00 |   12:16.27   |           0      |      55226
       2  | 12:16.27 |   10:46.73   |       55227      |     103749
       3  | 23:03.25 |   19:07.23   |      103750      |     189797
       4  | 42:10.48 |   12:52.29   |      189798      |     247726
Характеристики диапазона извлечения и сообщения об ошибках
Выбранный диапазон
     Имя файла D:\TEMP\PERCEPTION - 1973 - Mestari [2012, Great Winds GW3156].wav
     Пиковый уровень 89.1 %
     Качество диапазона 99.9 %
     CRC теста FDF4C200
     CRC копии FDF4C200
     Копирование... OK
Ошибок не произошло
AccurateRip: сводка
Трек  1  нет в базе данных
Трек  2  нет в базе данных
Трек  3  нет в базе данных
Трек  4  нет в базе данных
Ни одного трека нет в базе AccurateRip
Конец отчёта

Краткая информацияProgArchivesЭто то, чем занимался известный французский музыкант венгерского происхождения Йошк’о Сеффер между Magma и образованием Zao. Не нужно удивляться ссылке на Прог-архивы, просто здесь сыграла свою роль принадлежность Сеффера к zeuhl/джаз-рок-сцене. Zeuhl’а здесь нет вообще, джаз-рок — местами элементы.
Слушание довольно непростое, в отличие от хотя и сильно закрученной, но всё же более доступной музыке Zao. Но интересное: всё-таки Сеффер — это Сеффер. Кроме него, на альбомах свои композиции имеют также Зигфрид Кесслер и Дидье Левалле. Прекрасная барабанная работа Жана-М. Труонга — будущего барабанщика Zao.
На втором альбоме “Perception & Friends” друзья — некоторые знакомые лица, бывшие музыканты Magma.


Скорость отдачи — 896Кбит/с (реально ~90Кбайт/с).
Жду появления как минимум трёх сидов (кроме себя).
Пожалуйста, быстро не уходите с раздачи!

Всем желаю успешного скачивания и приятного прослушивания!
Any questions -> support@pro-jazz.com. По всем вопросам пишите -> support@pro-jazz.com
06:07
283
Нет комментариев. Ваш будет первым!