Поиск

(Avantgarde) Pat Metheny/Derek Bailey/Gregg Bendian/Paul Wertico - The Sign Of 4 {3CD Box-Set} - 1997, FLAC (image + .cue), lossless

Треклист:
<Pat Metheny/Derek Bailey/Gregg Bendian/Paul Wertico>
The Sign Of 4 {3CD Box-Set}Страна: USA
Жанр: Avantgarde
Год выпуска: 1997
Формат: FLAC (image + .cue)
Битрейт аудио: lossless
Продолжительность: ~3:15:30
 
VOL 1. STATEMENT OF THE CASE
VOL 1. STATEMENT OF THE CASE
Tracklist:
1-9. A Study In Scarlet [62:51]
Derek Bailey - electric guitar
Pat Metheny - electric guitar
Gregg Bendian - drums/vibraphone
Paul Wertico - drums/percussion
Recorded Live at The Knitting Factory on December 13th, 1996
 
Vol 1 LOG-File
Exact Audio Copy V0.99 prebeta 3 from 28. July 2007
Отчёт EAC об извлечении, выполненном 7. декабря 2007, 2:09
Pat Metheny/Derek Bailey/Gregg Bendian/Paul Wertico / The Sign Of 4 vol 1. Statement Of The Case
Дисковод: PLEXTOR DVDR PX-800A Adapter: 2 ID: 0
Режим чтения : Достоверность
Использование точного потока : Да
Отключение кэша аудио : Да
Использование указателей C2 : Нет
Коррекция смещения при чтении : 48
Способность читать области Lead-in и Lead-out : Нет
Заполнение пропущенных сэмплов тишиной : Да
Удаление блоков с тишиной в начале и конце : Нет
При вычислениях CRC использовались нулевые сэмплы : Да
Интерфейс : Установленный внешний ASPI-интерфейс
Выходной формат : Внутренние WAV-операции
Формат сэмплов : 44.100 Гц; 16 бит; стерео
TOC извлечённого CD
Трек | Старт | Длительность | Начальный сектор | Конечный сектор
---------------------------------------------------------------------
1 | 0:00.00 | 7:39.35 | 0 | 34459
2 | 7:39.35 | 2:46.62 | 34460 | 46971
3 | 10:26.22 | 4:01.55 | 46972 | 65101
4 | 14:28.02 | 8:15.65 | 65102 | 102291
5 | 22:43.67 | 5:28.70 | 102292 | 126961
6 | 28:12.62 | 6:08.08 | 126962 | 154569
7 | 34:20.70 | 5:04.52 | 154570 | 177421
8 | 39:25.47 | 12:09.25 | 177422 | 232121
9 | 51:34.72 | 11:16.40 | 232122 | 282861
Характеристики диапазона извлечения и сообщения об ошибках
Выбранный диапазон
Имя файла F:\Metheny-Bailey-Bendian-Wertico - The Sign Of 4\Vol 1. Statement Of The Case\Statement Of The Case.wav
Пиковый уровень 99.6 %
Качество диапазона 100.0 %
CRC копии 0CAF28E9
Копирование... OK
Ошибок не произошло
Конец отчёта

 
VOL 2. THE SCIENCE OF DEDUCTION
VOL 2. THE SCIENCE OF DEDUCTION
Tracklist:
1. Evidently [7:45]
DB: electric guitar
PM: electric guitar
GB: arco disc/drums/Tubz vibraphone/log drum
PW: metals/prepared drums/percussion/donno drum
2. Unity Habits [6:21]
DB: electric guitar
PM: electric guitar
GB: chains/roto toms/cymbals/cowbells/plastic/vibraphone
PW: donno drum/log drum
3. The Rule Of Three [2:37]
DB: acoustic guitar
PM: acoustic sitar guitar
GB: arco disc
4. Strange Story [4:05]
DB: acoustic guitar
PM: acoustic baritone guitar
GB: prepared vibraphone
PW: meashuring tape/bowed cymbals
5. The Aurora [3:38]
DB: acoustic guitar
PM: pikasso guitar
GB: roto toms/cymbals/dumbeg/bongos/templeblocks/log drum
PW: Tubz/drums/metals
6. Tracks [5:37]
DB: electric guitar
PM: pikasso guitar
GB: vibraphone/glockenspiel
PW: snare drum/drums/brushes
7. A Break In The Chain [8:35]
DB: electric guitar
PM: electric guitar
GB: bass marimba/timpani/drums
PW: metals/drums/pedal tom
8. One Object [6:12]
DB: acoustic guitar
PM: acoustic baritone guitar
GB: bongos
PW: cymbals/drums/egg beaters/mallet growls/bedpost squeaker
9. Euclid [6:31]
DB: electric guitar
PM: fretless guitar
GB: cymbals/woodblock/drums/cowbells
PW: cymbals/metals/pedal tom/plastic packaging
10. Fortune [9:53]
DB: electric guitar
PM: pikasso guitar synth
GB: bass marimba/vibraphone
PW: drums/knitting needles
Total Running Time: [61:19]
Recorded at Sound On Sound Studios on December 12th + 15th, 1996
 
Vol 2 LOG-File
Exact Audio Copy V0.99 prebeta 3 from 28. July 2007
Отчёт EAC об извлечении, выполненном 7. декабря 2007, 2:47
Pat Metheny/Derk Bailey/Gregg Bendian/Paul Wertico / The Sign Of 4 vol 2. The Science Of Deduction
Дисковод: PLEXTOR DVDR PX-800A Adapter: 2 ID: 0
Режим чтения : Достоверность
Использование точного потока : Да
Отключение кэша аудио : Да
Использование указателей C2 : Нет
Коррекция смещения при чтении : 48
Способность читать области Lead-in и Lead-out : Нет
Заполнение пропущенных сэмплов тишиной : Да
Удаление блоков с тишиной в начале и конце : Нет
При вычислениях CRC использовались нулевые сэмплы : Да
Интерфейс : Установленный внешний ASPI-интерфейс
Выходной формат : Внутренние WAV-операции
Формат сэмплов : 44.100 Гц; 16 бит; стерео
TOC извлечённого CD
Трек | Старт | Длительность | Начальный сектор | Конечный сектор
---------------------------------------------------------------------
1 | 0:00.00 | 7:46.32 | 0 | 34981
2 | 7:46.32 | 6:21.53 | 34982 | 63609
3 | 14:08.10 | 2:37.40 | 63610 | 75424
4 | 16:45.50 | 4:05.52 | 75425 | 93851
5 | 20:51.27 | 3:38.68 | 93852 | 110269
6 | 24:30.20 | 5:37.07 | 110270 | 135551
7 | 30:07.27 | 8:35.03 | 135552 | 174179
8 | 38:42.30 | 6:12.72 | 174180 | 202151
9 | 44:55.27 | 6:31.03 | 202152 | 231479
10 | 51:26.30 | 9:53.70 | 231480 | 276024
Характеристики диапазона извлечения и сообщения об ошибках
Выбранный диапазон
Имя файла F:\Metheny-Bailey-Bendian-Wertico - The Sign Of 4\Vol 2. The Science Of Deduction\The Science Of Deduction.wav
Пиковый уровень 99.9 %
Качество диапазона 100.0 %
CRC копии 3F562AC2
Копирование... OK
Ошибок не произошло
Конец отчёта

 
VOL 3. THE BALANCE OF PROBABILITY
VOL 3. THE BALANCE OF PROBABILITY
Tracklist:
1. Poisoned Arrows [14:59]
DB: electric guitar
PM: electric guitar
GB: drums/dumbeg/woodblock/vibraphone
PW: vitamin bottle/percussion/drums/pedal tom/electronic effects
2. Trichinopoly [7:18]
DB: electric guitar
PM: pikasso guitar synth
GB: drums/arco disc/vibraphone
PW: percussion/mallet growls/drums
3. Ransom [19:02]
DB: electric guitar
PM: electric guitar
GB: drums/vibraphone
PW: drums/metals/percussion
4. Antecedents [7:26]
DB: acoustic guitar
PM: pikasso guitar
GB: dumbeg/bongos/cymbals
PW: donno drum/mallet growls/egg beaters
5. In Quest Of A Solution [19:24]
DB: electric guitar
PM: guitar synth
GB: Tubz/drums
PW: Tubz/drums
Total Running Time: [68:11]
Recorded Live at The Knitting Factory on December 13th + 14th, 1996
 
Vol 3 LOG-File
Exact Audio Copy V0.99 prebeta 3 from 28. July 2007
Отчёт EAC об извлечении, выполненном 7. декабря 2007, 3:39
Pat Metheny/Derk Bailey/Gregg Bendian/Paul Wertico / The Sign Of 4 vol 3. The Balance Of Probability
Дисковод: PLEXTOR DVDR PX-800A Adapter: 2 ID: 0
Режим чтения : Достоверность
Использование точного потока : Да
Отключение кэша аудио : Да
Использование указателей C2 : Нет
Коррекция смещения при чтении : 48
Способность читать области Lead-in и Lead-out : Нет
Заполнение пропущенных сэмплов тишиной : Да
Удаление блоков с тишиной в начале и конце : Нет
При вычислениях CRC использовались нулевые сэмплы : Да
Интерфейс : Установленный внешний ASPI-интерфейс
Выходной формат : Внутренние WAV-операции
Формат сэмплов : 44.100 Гц; 16 бит; стерео
TOC извлечённого CD
Трек | Старт | Длительность | Начальный сектор | Конечный сектор
---------------------------------------------------------------------
1 | 0:00.00 | 14:59.67 | 0 | 67491
2 | 14:59.67 | 7:18.48 | 67492 | 100389
3 | 22:18.40 | 19:03.17 | 100390 | 186131
4 | 41:21.57 | 7:25.38 | 186132 | 219544
5 | 48:47.20 | 19:24.52 | 219545 | 306896
Характеристики диапазона извлечения и сообщения об ошибках
Выбранный диапазон
Имя файла F:\Metheny-Bailey-Bendian-Wertico - The Sign Of 4\Vol 3. The Balance Of Probability\The Balance Of Probability.wav
Пиковый уровень 99.9 %
Качество диапазона 99.9 %
CRC копии 95700127
Копирование... OK
Ошибок не произошло
Конец отчёта

Доп. информация:
All music by Bailey/Metheny/Bendian/Wertico (C.P. 1997)
Bendian + Metheny are heard to the left / Bailey + Wertico are heard to the right.
Produced by Gregg Bendian
Engineered & Mixed by Jon Rosenberg
Masterd at Foothill Digital by Nick Prout
Live Sound by Claudia Engelhart
Мда... Не качайте это, если у вас слабая психика... И не качайте, если вы любите красивую мелодичную музыку... А вот если вы маньяк и любите до безумия всякие радикальные эксперименты, экстремальный авангард и в шуме работающего отбойного молотка вам слышится музыка, то качайте - тогда должно понравится. Не знаю, мне эти три пластинки реально и конкретно давят на психику , ни разу не смог дослушать до конца хотя бы одну часть из трех. Даже из спортивного интереса не получается... Мда...
#61
Приватный:
Нет (DHT включён)
Размер:
1.07 Гб (1,144,090,673 байт) » файлов: 18
Участники:
0 раздают, 0 качают (0 участников всего)
Внешние участники:
2 раздают, 1 качают (3 участников всего) [ Обновить ]
Есть вопросы - пишите личное сообщение пользователю M0p94ok.
22:59
77
Нет комментариев. Ваш будет первым!