Поиск

(Avantgarde Jazz, Free Improvisation) [CD] Stellari String Quartet - Gocce Stellari - 2009, FLAC (tracks+.cue), lossless

(Avantgarde Jazz, Free Improvisation) [CD] Stellari String Quartet - Gocce Stellari - 2009, FLAC (tracks+.cue), lossless
Stellari String Quartet / Gocce Stellari
Жанр: Avantgarde Jazz, Free Improvisation
Носитель: CD
Страна-производитель диска (релиза): UK
Год издания: 2009
Издатель (лейбл): Emanem
Номер по каталогу: 5006
Страна исполнителя (группы): UK
Аудиокодек: FLAC (*.flac)
Тип рипа: tracks+.cue
Битрейт аудио: lossless
Продолжительность: 69:23
Источник (релизер): what.cd (unknown)
Наличие сканов в содержимом раздачи: нет
Треклист:
1 Pleione 17:45
2 Merope 12:53
3 Alcyone 10:18
4 Sterope 3:06
5 Mintaka 8:44
6 Alnitak 10:40
7 Alnilam 5:26
 
Лог создания рипа
X Lossless Decoder version 20130720 (144.0)
XLD extraction logfile from 2013-08-15 01:39:36 +0400
Stellari String Quartet / Gocce Stellari
Used drive : HL-DT-ST DVDRW GX30N (revision RP09)
Media type : Pressed CD
Ripper mode : XLD Secure Ripper
Disable audio cache : OK for the drive with a cache less than 1375KiB
Make use of C2 pointers : NO
Read offset correction : 6
Max retry count : 100
Gap status : Analyzed, Appended (except HTOA)
TOC of the extracted CD
Track | Start | Length | Start sector | End sector
---------------------------------------------------------
1 | 00:00:00 | 17:50:59 | 0 | 80308
2 | 17:50:59 | 12:56:60 | 80309 | 138568
3 | 30:47:44 | 10:21:66 | 138569 | 185209
4 | 41:09:35 | 03:14:40 | 185210 | 199799
5 | 44:24:00 | 08:48:36 | 199800 | 239435
6 | 53:12:36 | 10:44:39 | 239436 | 287774
7 | 63:57:00 | 05:26:00 | 287775 | 312224
AccurateRip Summary
Disc not found in AccurateRip DB.
All Tracks
Album gain : 0.21 dB
Peak : 1.000000
Statistics
Read error : 0
Jitter error (maybe fixed) : 0
Retry sector count : 0
Damaged sector count : 0
Track 01
Filename : /Users/anch/Music/FLAC/Stellari String Quartet - 2009 - Gocce Stellari [MP3 320]/01 - Pleione.mp3
/Users/anch/Music/FLAC/Stellari String Quartet - 2009 - Gocce Stellari [MP3 V0]/01 - Pleione.mp3
/Users/anch/Music/FLAC/Stellari String Quartet - 2009 - Gocce Stellari [FLAC]/01 - Pleione.flac
Pre-gap length : 00:02:00
Track gain : -0.36 dB
Peak : 1.000000
CRC32 hash (test run) : 1F9CEF63
CRC32 hash : 1F9CEF63
CRC32 hash (skip zero) : 6B00D3A7
AccurateRip v1 signature : 73BE4E94
AccurateRip v2 signature : F08863EE
->Track not present in AccurateRip database.
Statistics
Read error : 0
Jitter error (maybe fixed) : 0
Retry sector count : 0
Damaged sector count : 0
Track 02
Filename : /Users/anch/Music/FLAC/Stellari String Quartet - 2009 - Gocce Stellari [MP3 320]/02 - Merope.mp3
/Users/anch/Music/FLAC/Stellari String Quartet - 2009 - Gocce Stellari [MP3 V0]/02 - Merope.mp3
/Users/anch/Music/FLAC/Stellari String Quartet - 2009 - Gocce Stellari [FLAC]/02 - Merope.flac
Pre-gap length : 00:04:00
Track gain : 1.15 dB
Peak : 1.000000
CRC32 hash (test run) : 8C57D946
CRC32 hash : 8C57D946
CRC32 hash (skip zero) : C001195E
AccurateRip v1 signature : 025005A6
AccurateRip v2 signature : D15B063C
->Track not present in AccurateRip database.
Statistics
Read error : 0
Jitter error (maybe fixed) : 0
Retry sector count : 0
Damaged sector count : 0
Track 03
Filename : /Users/anch/Music/FLAC/Stellari String Quartet - 2009 - Gocce Stellari [MP3 320]/03 - Alcyone.mp3
/Users/anch/Music/FLAC/Stellari String Quartet - 2009 - Gocce Stellari [MP3 V0]/03 - Alcyone.mp3
/Users/anch/Music/FLAC/Stellari String Quartet - 2009 - Gocce Stellari [FLAC]/03 - Alcyone.flac
Pre-gap length : 00:04:00
Track gain : -0.60 dB
Peak : 0.983826
CRC32 hash (test run) : 7E5BCBA7
CRC32 hash : 7E5BCBA7
CRC32 hash (skip zero) : A52A9FB1
AccurateRip v1 signature : 53937E21
AccurateRip v2 signature : EFF0787B
->Track not present in AccurateRip database.
Statistics
Read error : 0
Jitter error (maybe fixed) : 0
Retry sector count : 0
Damaged sector count : 0
Track 04
Filename : /Users/anch/Music/FLAC/Stellari String Quartet - 2009 - Gocce Stellari [MP3 320]/04 - Sterope.mp3
/Users/anch/Music/FLAC/Stellari String Quartet - 2009 - Gocce Stellari [MP3 V0]/04 - Sterope.mp3
/Users/anch/Music/FLAC/Stellari String Quartet - 2009 - Gocce Stellari [FLAC]/04 - Sterope.flac
Pre-gap length : 00:04:00
Track gain : -0.13 dB
Peak : 0.903198
CRC32 hash (test run) : 90DDE6F5
CRC32 hash : 90DDE6F5
CRC32 hash (skip zero) : 03AEC3EC
AccurateRip v1 signature : C569D461
AccurateRip v2 signature : 3BDFF8B8
->Track not present in AccurateRip database.
Statistics
Read error : 0
Jitter error (maybe fixed) : 0
Retry sector count : 0
Damaged sector count : 0
Track 05
Filename : /Users/anch/Music/FLAC/Stellari String Quartet - 2009 - Gocce Stellari [MP3 320]/05 - Mintaka.mp3
/Users/anch/Music/FLAC/Stellari String Quartet - 2009 - Gocce Stellari [MP3 V0]/05 - Mintaka.mp3
/Users/anch/Music/FLAC/Stellari String Quartet - 2009 - Gocce Stellari [FLAC]/05 - Mintaka.flac
Pre-gap length : 00:08:00
Track gain : -0.65 dB
Peak : 0.729401
CRC32 hash (test run) : 33938E86
CRC32 hash : 33938E86
CRC32 hash (skip zero) : 8B1EE895
AccurateRip v1 signature : 7078CE1E
AccurateRip v2 signature : 91FB2B57
->Track not present in AccurateRip database.
Statistics
Read error : 0
Jitter error (maybe fixed) : 0
Retry sector count : 0
Damaged sector count : 0
Track 06
Filename : /Users/anch/Music/FLAC/Stellari String Quartet - 2009 - Gocce Stellari [MP3 320]/06 - Alnitak.mp3
/Users/anch/Music/FLAC/Stellari String Quartet - 2009 - Gocce Stellari [MP3 V0]/06 - Alnitak.mp3
/Users/anch/Music/FLAC/Stellari String Quartet - 2009 - Gocce Stellari [FLAC]/06 - Alnitak.flac
Pre-gap length : 00:04:00
Track gain : 2.80 dB
Peak : 0.905823
CRC32 hash (test run) : B03BF2B0
CRC32 hash : B03BF2B0
CRC32 hash (skip zero) : E663FA17
AccurateRip v1 signature : A0CFE051
AccurateRip v2 signature : 24C447A4
->Track not present in AccurateRip database.
Statistics
Read error : 0
Jitter error (maybe fixed) : 0
Retry sector count : 0
Damaged sector count : 0
Track 07
Filename : /Users/anch/Music/FLAC/Stellari String Quartet - 2009 - Gocce Stellari [MP3 320]/07 - Alnilam.mp3
/Users/anch/Music/FLAC/Stellari String Quartet - 2009 - Gocce Stellari [MP3 V0]/07 - Alnilam.mp3
/Users/anch/Music/FLAC/Stellari String Quartet - 2009 - Gocce Stellari [FLAC]/07 - Alnilam.flac
Pre-gap length : 00:04:00
Track gain : 0.97 dB
Peak : 0.863983
CRC32 hash (test run) : F758C7A8
CRC32 hash : F758C7A8
CRC32 hash (skip zero) : 1CD37A74
AccurateRip v1 signature : FC583578
AccurateRip v2 signature : 36FDA25F
->Track not present in AccurateRip database.
Statistics
Read error : 0
Jitter error (maybe fixed) : 0
Retry sector count : 0
Damaged sector count : 0
No errors occurred
End of status report
 
Содержание индексной карты (.CUE)
TITLE "Gocce Stellari"
PERFORMER "Stellari String Quartet"
REM GENRE "Free Jazz"
REM DATE "2009"
REM DISCID 6C104307
REM REPLAYGAIN_ALBUM_GAIN 0.21 dB
REM REPLAYGAIN_ALBUM_PEAK 1.000000
FILE "01 - Pleione.flac" WAVE
TRACK 01 AUDIO
TITLE "Pleione"
PERFORMER "Stellari String Quartet"
ISRC GBGKV0900601
REM REPLAYGAIN_TRACK_GAIN -0.36 dB
REM REPLAYGAIN_TRACK_PEAK 1.000000
INDEX 01 00:00:00
TRACK 02 AUDIO
TITLE "Merope"
PERFORMER "Stellari String Quartet"
ISRC GBGKV0900602
REM REPLAYGAIN_TRACK_GAIN 1.15 dB
REM REPLAYGAIN_TRACK_PEAK 1.000000
INDEX 00 17:46:59
FILE "02 - Merope.flac" WAVE
INDEX 01 00:00:00
TRACK 03 AUDIO
TITLE "Alcyone"
PERFORMER "Stellari String Quartet"
ISRC GBGKV0900603
REM REPLAYGAIN_TRACK_GAIN -0.60 dB
REM REPLAYGAIN_TRACK_PEAK 0.983826
INDEX 00 12:52:60
FILE "03 - Alcyone.flac" WAVE
INDEX 01 00:00:00
TRACK 04 AUDIO
TITLE "Sterope"
PERFORMER "Stellari String Quartet"
ISRC GBGKV0900604
REM REPLAYGAIN_TRACK_GAIN -0.13 dB
REM REPLAYGAIN_TRACK_PEAK 0.903198
INDEX 00 10:17:66
FILE "04 - Sterope.flac" WAVE
INDEX 01 00:00:00
TRACK 05 AUDIO
TITLE "Mintaka"
PERFORMER "Stellari String Quartet"
ISRC GBGKV0900605
REM REPLAYGAIN_TRACK_GAIN -0.65 dB
REM REPLAYGAIN_TRACK_PEAK 0.729401
INDEX 00 03:06:40
FILE "05 - Mintaka.flac" WAVE
INDEX 01 00:00:00
TRACK 06 AUDIO
TITLE "Alnitak"
PERFORMER "Stellari String Quartet"
ISRC GBGKV0900606
REM REPLAYGAIN_TRACK_GAIN 2.80 dB
REM REPLAYGAIN_TRACK_PEAK 0.905823
INDEX 00 08:44:36
FILE "06 - Alnitak.flac" WAVE
INDEX 01 00:00:00
TRACK 07 AUDIO
TITLE "Alnilam"
PERFORMER "Stellari String Quartet"
ISRC GBGKV0900607
REM REPLAYGAIN_TRACK_GAIN 0.97 dB
REM REPLAYGAIN_TRACK_PEAK 0.863983
INDEX 00 10:40:39
FILE "07 - Alnilam.flac" WAVE
INDEX 01 00:00:00
 
Об исполнителе (группе)
Members of Stellari String Quartet: Charlotte Hug, John Edwards, Marcio Mattos, Philipp Wachsmann
 
Об альбоме (сборнике)
Tracks 1 to 4 recorded at UNCOOL festival of improv world cosmo music 2007, Le Prese, Poschiavo, Switzerland on 17 May 2007.
Tracks 5 to 7 recorded at London White House on 9 September 2006.
Recorded By – Lara Persia (tracks: 1 to 4), Philipp Wachsmann (tracks: 5 to 7)
Mixed By, Mastered By – Philipp Wachsmann
 
Состав
Cello – Marcio Mattos
Double Bass – John Edwards
Viola – Charlotte Hug
Violin – Philipp Wachsmann
23:15
262
Нет комментариев. Ваш будет первым!