Вы используете незарегистрированную версию компонента "Вкладки"!

Поиск

(Avantgarde Jazz) Actis Band - Allende - 2006, FLAC (image+.cue), lossless

(Avantgarde Jazz) Actis Band - Allende - 2006, FLAC (image+.cue), lossless
Треклист:
Actis Band - Allende
Жанр: Avantgarde Jazz
Год выпуска диска: 2006
Аудио кодек: FLAC
Тип рипа: image+.cue
Битрейт аудио: lossless
Продолжительность: 64:00
Трэклист:
 
скрытый текст
1.Allende (8:05)
2.KRK (5:20)
3.Sentiero del Re (7:30)
4.Noche de Fraga (5:40)
5.Mock Democracy (8:04)
6.Zorro (6:39)
7.Bolivar (5:41)
8.Kamakura (7:46)
9.Sandokan (7:42)
10.We Are the UFO (1:28)
Доп. информация:
 
Line-up
Carlo Actis Dato – tenor & baritone sax, bass clarinet
Dario Bruna Drums
Karsten Lipp Guitar
Federico Marchesano Bass (Electric)
Massimo Rossi Sax (Alto), Sax (Soprano)
http://www.allmusic.com/cg/amg.dll?p=amg&sql=10:3zfixqtdldfe~T0
Рип с оригинального диска из собственной коллекции.
 
Отчёт EAC
Exact Audio Copy V0.99 prebeta 3 from 28. July 2007
Отчёт EAC об извлечении, выполненном 9. августа 2009, 11:04
Actis Band / Allende
Дисковод: _NEC DVD_RW ND-3540A Adapter: 3 ID: 1
Режим чтения : Достоверность
Использование точного потока : Да
Отключение кэша аудио : Да
Использование указателей C2 : Нет
Коррекция смещения при чтении : 48
Способность читать области Lead-in и Lead-out : Нет
Заполнение пропущенных сэмплов тишиной : Да
Удаление блоков с тишиной в начале и конце : Нет
При вычислениях CRC использовались нулевые сэмплы : Да
Интерфейс : Установленный внешний ASPI-интерфейс
Выходной формат : Пользовательский кодировщик
Выбранный битрейт : 768 kBit/s
Качество : Высокий
Добавление ID3-тэга : Нет
Утилита сжатия : D:\БЫВШИЙ G\Program Files\Exact Audio Copy\FLAC\FLAC.EXE
Дополнительные параметры : -6 -V -T "ARTIST=%a" -T "TITLE=%t" -T "ALBUM=%g" -T "DATE=%y" -T "TRACKNUMBER=%n" -T "GENRE=%m" -T "COMMENT=%e" %s -o %d
TOC извлечённого CD
Трек | Старт | Длительность | Начальный сектор | Конечный сектор
---------------------------------------------------------------------
1 | 0:00.00 | 8:05.71 | 0 | 36445
2 | 8:05.71 | 5:20.19 | 36446 | 60464
3 | 13:26.15 | 7:30.01 | 60465 | 94215
4 | 20:56.16 | 5:40.60 | 94216 | 119775
5 | 26:37.01 | 8:04.28 | 119776 | 156103
6 | 34:41.29 | 6:39.28 | 156104 | 186056
7 | 41:20.57 | 5:41.19 | 186057 | 211650
8 | 47:02.01 | 7:46.49 | 211651 | 246649
9 | 54:48.50 | 7:42.49 | 246650 | 281348
10 | 62:31.24 | 1:27.65 | 281349 | 287938
Характеристики диапазона извлечения и сообщения об ошибках
Выбранный диапазон
Имя файла G:\Actis Band - Allende\Actis Band - Allende.wav
Пиковый уровень 100.0 %
Качество диапазона 100.0 %
CRC копии 31865543
Копирование... OK
Ошибок не произошло
Конец отчёта
Any questions -> support@pro-jazz.com. По всем вопросам пишите -> support@pro-jazz.com
13:20
173
Нет комментариев. Ваш будет первым!