Поиск

(avantgarde, hardcore-free-jazz) Otomo Yoshihide's New Jazz Quintet feat. Mats Gustafsson - ONJQ Live in Lisbon - 2006, FLAC (image + .cue), lossless

(avantgarde, hardcore-free-jazz) Otomo Yoshihide's New Jazz Quintet feat. Mats Gustafsson - ONJQ Live in Lisbon - 2006, FLAC (image + .cue), lossless
Треклист:
Otomo Yoshihide's New Jazz Quintet feat. Mats Gustafsson - ONJQ Live in Lisbon
Страна: Japan, Sweden
Жанр: avantgarde, hardcore-free-jazz
Год выпуска: 2006
Формат: FLAC (image + .cue)
Битрейт аудио: lossless
Продолжительность: 57:06
Трэклист:
1. Song for Che (Charlie Haden) / Reducing Agent (Otomo Yoshihide)
2. Serene (Eric Dolphy)
3. Flutter (Otomo Yoshihide)
4. Eureka (Jim O'Rourke)
Доп. информация: Personel: Mats Gustafsson (sax), Mizutani Hiroaki (b), Otomo Yoshihide (g), Tsugami Kenta (as), Yoshigaki Yasuhiro (d)
Clean feed records, CF063CD
 
Отчёт EAC
Exact Audio Copy V0.99 prebeta 4 from 23. January 2008
Отчёт EAC об извлечении, выполненном 2. мая 2008, 2:07
Otomo Yoshihide's New Jazz Quintet feat. Mats Gustafsson / ONJQ Live in Lisbon
Дисковод: Optiarc DVD RW AD-7170A Adapter: 0 ID: 1
Режим чтения : Достоверность
Использование точного потока : Да
Отключение кэша аудио : Да
Использование указателей C2 : Нет
Комбинированное смещение чтения/записи : 0
Способность читать области Lead-in и Lead-out : Нет
Заполнение пропущенных сэмплов тишиной : Да
Удаление блоков с тишиной в начале и конце : Нет
При вычислениях CRC использовались нулевые сэмплы : Нет
Интерфейс : Встроенный Win32-интерфейс для Win NT/2000
Выходной формат : Пользовательский кодировщик
Выбранный битрейт : 768 kBit/s
Качество : Высокий
Добавление ID3-тэга : Нет
Утилита сжатия : C:\Program Files\Exact Audio Copy\FLAC\FLAC.EXE
Дополнительные параметры : -6 -V -T "ARTIST=%a" -T "TITLE=%t" -T "ALBUM=%g" -T "DATE=%y" -T "TRACKNUMBER=%n" -T "GENRE=%m" -T "COMMENT=%e" %s -o %d
TOC извлечённого CD
Трек | Старт | Длительность | Начальный сектор | Конечный сектор
---------------------------------------------------------------------
1 | 0:00.00 | 11:33.18 | 0 | 51992
2 | 11:33.18 | 8:39.41 | 51993 | 90958
3 | 20:12.59 | 21:54.22 | 90959 | 189530
4 | 42:07.06 | 14:57.50 | 189531 | 256855
Характеристики диапазона извлечения и сообщения об ошибках
Выбранный диапазон
Имя файла C:\Music\Otomo Yoshihide's New Jazz Quintet feat. Mats Gustafsson - ONJQ Live in Lisbon.wav
Пиковый уровень 98.8 %
Качество диапазона 100.0 %
CRC копии D6FE911B
Копирование... OK
Ошибок не произошло
Конец отчёта
Приватный:
Нет (DHT включён)
Размер:
357.10 Мб (374,445,689 байт) » файлов: 3
Участники:
0 раздают, 0 качают (0 участников всего)
Внешние участники:
2 раздают, 1 качают (3 участников всего) [ Обновить ]
Есть вопросы - пишите личное сообщение пользователю M0p94ok.
00:48
49
Нет комментариев. Ваш будет первым!