Вы используете незарегистрированную версию компонента "Вкладки"!

Поиск

(avant-jazz/jazz-rock/psychedelic) Francesco Cusa "Skrunch" - L`arte della guerra - 2007, FLAC (tracks+.cue) lossless

(avant-jazz/jazz-rock/psychedelic) Francesco Cusa "Skrunch" - L`arte della guerra - 2007, FLAC (tracks+.cue) lossless
Треклист:
Francesco Cusa "Skrunch" / L`arte della guerra
Жанр: avant-jazz/jazz-rock/psychedelic
Страна-производитель диска: Italy
Год издания диска: 2007
Издатель (лейбл): Improvvisatore Involontario
Номер по каталогу: ii0006
Страна: Italy
Аудио кодек: FLAC (*.flac)
Тип рипа: tracks+.cue
Битрейт аудио: lossless
Продолжительность: 45:87
Источник (релизер): собственный рип
Наличие сканов в содержимом раздачи: да
Треклист:
1. prologie
2. afrodionisiaco
3. escape from pussyland
4. quell giorno in cui j.j. cale si sveglio senza una gamba
5. alljazzera
6. opinioni di un clown
7. epilogo
 
Лог создания рипа
Exact Audio Copy V0.99 prebeta 5 from 4. May 2009
EAC extraction logfile from 28. February 2011, 19:21
Francesco Cusa "Skrunch" / L`arte della guerra
Used drive : Optiarc DVD RW AD-7243S Adapter: 0 ID: 1
Read mode : Secure
Utilize accurate stream : Yes
Defeat audio cache : Yes
Make use of C2 pointers : No
Read offset correction : 48
Overread into Lead-In and Lead-Out : No
Fill up missing offset samples with silence : Yes
Delete leading and trailing silent blocks : No
Null samples used in CRC calculations : Yes
Used interface : Native Win32 interface for Win NT & 2000
Gap handling : Appended to previous track
Used output format : User Defined Encoder
Selected bitrate : 768 kBit/s
Quality : High
Add ID3 tag : No
Command line compressor : C:\Program Files\Exact Audio Copy\FLAC\FLAC.EXE
Additional command line options : -6 -V -T "ARTIST=%a" -T "TITLE=%t" -T "ALBUM=%g" -T "DATE=%y" -T "TRACKNUMBER=%n" -T "GENRE=%m" -T "COMMENT=%e" %s -o %d
TOC of the extracted CD
Track | Start | Length | Start sector | End sector
---------------------------------------------------------
1 | 0:00.00 | 3:42.63 | 0 | 16712
2 | 3:42.63 | 6:08.69 | 16713 | 44381
3 | 9:51.57 | 7:43.04 | 44382 | 79110
4 | 17:34.61 | 8:27.28 | 79111 | 117163
5 | 26:02.14 | 8:17.59 | 117164 | 154497
6 | 34:19.73 | 8:20.11 | 154498 | 192008
7 | 42:40.09 | 4:30.67 | 192009 | 212325
Track 1
Filename C:\Documents and Settings\S\Мои документы\Torrent раздача\01.Francesco Cusa 'Skrunch'-Prologo.wav
Pre-gap length 0:00:02.00
Peak level 96.6 %
Track quality 99.9 %
Test CRC F1C57C0D
Copy CRC F1C57C0D
Track not present in AccurateRip database
Copy OK
Track 2
Filename C:\Documents and Settings\S\Мои документы\Torrent раздача\02.Francesco Cusa 'Skrunch'-Afrodionisiaco.wav
Peak level 96.6 %
Track quality 99.9 %
Test CRC B1890D09
Copy CRC B1890D09
Track not present in AccurateRip database
Copy OK
Track 3
Filename C:\Documents and Settings\S\Мои документы\Torrent раздача\03.Francesco Cusa 'Skrunch'-Escape from Pussyland.wav
Peak level 96.6 %
Track quality 100.0 %
Test CRC 95688450
Copy CRC 95688450
Track not present in AccurateRip database
Copy OK
Track 4
Filename C:\Documents and Settings\S\Мои документы\Torrent раздача\04.Francesco Cusa 'Skrunch'-Quell giorno in cui J.J. Cale si svegliosenza una gamp.wav
Pre-gap length 0:00:02.00
Peak level 96.6 %
Track quality 99.9 %
Test CRC 7C434E80
Copy CRC 7C434E80
Track not present in AccurateRip database
Copy OK
Track 5
Filename C:\Documents and Settings\S\Мои документы\Torrent раздача\05.Francesco Cusa 'Skrunch'-Alljazzera.wav
Pre-gap length 0:00:02.00
Peak level 96.6 %
Track quality 100.0 %
Test CRC 9F4A8332
Copy CRC 9F4A8332
Track not present in AccurateRip database
Copy OK
Track 6
Filename C:\Documents and Settings\S\Мои документы\Torrent раздача\06.Francesco Cusa 'Skrunch'-Opinioni di un clown.wav
Pre-gap length 0:00:02.00
Peak level 96.6 %
Track quality 100.0 %
Test CRC 105BDC71
Copy CRC 105BDC71
Track not present in AccurateRip database
Copy OK
Track 7
Filename C:\Documents and Settings\S\Мои документы\Torrent раздача\07.Francesco Cusa 'Skrunch'-Epilogo.wav
Pre-gap length 0:00:02.00
Peak level 96.6 %
Track quality 100.0 %
Test CRC 31D99795
Copy CRC 31D99795
Track not present in AccurateRip database
Copy OK
None of the tracks are present in the AccurateRip database
No errors occurred
End of status report
 
Содержание индексной карты (.CUE)
REM GENRE Avantgarde
REM DATE 2007
REM DISCID 4F0B0F07
REM COMMENT "ExactAudioCopy v0.99pb5"
PERFORMER "Francesco Cusa 'Skrunch'"
TITLE "L`arte della guerra"
FILE "01.Francesco Cusa 'Skrunch'-Prologo.wav" WAVE
TRACK 01 AUDIO
TITLE "Prologo"
PERFORMER "Francesco Cusa 'Skrunch'"
INDEX 01 00:00:00
FILE "02.Francesco Cusa 'Skrunch'-Afrodionisiaco.wav" WAVE
TRACK 02 AUDIO
TITLE "Afrodionisiaco"
PERFORMER "Francesco Cusa 'Skrunch'"
INDEX 01 00:00:00
FILE "03.Francesco Cusa 'Skrunch'-Escape from Pussyland.wav" WAVE
TRACK 03 AUDIO
TITLE "Escape from Pussyland"
PERFORMER "Francesco Cusa 'Skrunch'"
INDEX 01 00:00:00
TRACK 04 AUDIO
TITLE "Quell giorno in cui J.J. Cale si svegliosenza una gamp"
PERFORMER "Francesco Cusa 'Skrunch'"
INDEX 00 07:41:04
FILE "04.Francesco Cusa 'Skrunch'-Quell giorno in cui J.J. Cale si svegliosenza una gamp.wav" WAVE
INDEX 01 00:00:00
TRACK 05 AUDIO
TITLE "Alljazzera"
PERFORMER "Francesco Cusa 'Skrunch'"
INDEX 00 08:25:28
FILE "05.Francesco Cusa 'Skrunch'-Alljazzera.wav" WAVE
INDEX 01 00:00:00
TRACK 06 AUDIO
TITLE "Opinioni di un clown"
PERFORMER "Francesco Cusa 'Skrunch'"
INDEX 00 08:15:59
FILE "06.Francesco Cusa 'Skrunch'-Opinioni di un clown.wav" WAVE
INDEX 01 00:00:00
TRACK 07 AUDIO
TITLE "Epilogo"
PERFORMER "Francesco Cusa 'Skrunch'"
INDEX 00 08:18:11
FILE "07.Francesco Cusa 'Skrunch'-Epilogo.wav" WAVE
INDEX 01 00:00:00
 
Состав
Francesco Cusa - drums/compositions
Carlo Natoli - baritone guitar
Paolo Sorge - guitar
Beppe Scardino - baritone sax
Piero Bittolo Bon - a.sax
Dario De Filippo percussions
Large ensemble:
Tony Cattano - trombone
Riccardo Pittau - tr
Guest: Dean Bowman - vocals
Другие раздачи
http://rutracker.org/forum/search.php?uid=17163016
Any questions -> support@pro-jazz.com. По всем вопросам пишите -> support@pro-jazz.com
09:16
146
Нет комментариев. Ваш будет первым!