Вы используете незарегистрированную версию компонента "Вкладки"!

Поиск

(avant-jazz/jazz-rock) The Wrong Object - Stories from The Shed - 2008, FLAC (image+.cue), lossless

Треклист:
The Wrong Object - Stories from The Shed
Жанр: avant-jazz/jazz-rock
Год выпуска диска: 2008
Производитель диска: Moonjune Records/Belgium
Аудио кодек: FLAC
Тип рипа: image+.cue
Битрейт аудио: lossless
Трэклист:
1.Sonic riot at the holy palate
2. 15/05
3. Sheepwrecked
4. Acquiring the taste
5. Lifting belly
6. Maligng belly
7. Theresa`s siesta
8. Ripping stones
9. Theresa`s dress
10. Strangler
11. Waves and radiations
12. Saturn
13. The unbelievable truth - PartI
14. The Unbelievable truth - PartII
Доп. информация:
Michel Delville - guitar, guitar-synth., electronics
Fred Delplanco - tenor sax
Jean-Paul Estievenart - trumpet, flugelhorn
Laurent Delchambre - drums, assorted percussions, samples
Собственный рип
Отчет ЕАС
 
скрытый текст
Exact Audio Copy V0.99 prebeta 5 from 4. May 2009
Отчёт EAC об извлечении, выполненном 17. июня 2010, 21:03
The Wrong Objeckt / Stories from the shed
Дисковод: PIONEER DVD-RW DVR-111D Adapter: 1 ID: 0
Режим чтения : Достоверность
Использование точного потока : Да
Отключение кэша аудио : Да
Использование указателей C2 : Нет
Коррекция смещения при чтении : 48
Способность читать области Lead-in и Lead-out : Нет
Заполнение пропущенных сэмплов тишиной : Да
Удаление блоков с тишиной в начале и конце : Нет
При вычислениях CRC использовались нулевые сэмплы : Да
Интерфейс : Встроенный Win32-интерфейс для Win NT/2000
Выходной формат : Пользовательский кодировщик
Выбранный битрейт : 768 kBit/s
Качество : Высокий
Добавление ID3-тэга : Нет
Утилита сжатия : C:\Program Files\Exact Audio Copy\FLAC\FLAC.EXE
Дополнительные параметры : -6 -V -T "ARTIST=%a" -T "TITLE=%t" -T "ALBUM=%g" -T "DATE=%y" -T "TRACKNUMBER=%n" -T "GENRE=%m" -T "COMMENT=%e" %s -o %d
TOC извлечённого CD
Трек | Старт | Длительность | Начальный сектор | Конечный сектор
---------------------------------------------------------------------
1 | 0:00.00 | 2:52.07 | 0 | 12906
2 | 2:52.07 | 5:36.61 | 12907 | 38167
3 | 8:28.68 | 5:51.58 | 38168 | 64550
4 | 14:20.51 | 2:15.31 | 64551 | 74706
5 | 16:36.07 | 3:10.31 | 74707 | 88987
6 | 19:46.38 | 5:34.11 | 88988 | 114048
7 | 25:20.49 | 1:22.03 | 114049 | 120201
8 | 26:42.52 | 2:45.68 | 120202 | 132644
9 | 29:28.45 | 1:06.41 | 132645 | 137635
10 | 30:35.11 | 3:22.07 | 137636 | 152792
11 | 33:57.18 | 3:22.00 | 152793 | 167942
12 | 37:19.18 | 6:52.62 | 167943 | 198904
13 | 44:12.05 | 5:44.74 | 198905 | 224778
14 | 49:57.04 | 4:35.56 | 224779 | 245459
Характеристики диапазона извлечения и сообщения об ошибках
Выбранный диапазон
Имя файла C:\Documents and Settings\S\Мои документы\Torrent раздача\The Wrong Objeckt - Stories from the shed.wav
Пиковый уровень 100.0 %
Качество диапазона 99.9 %
CRC копии 1ACB597F
Копирование... OK
Ошибок не произошло
AccurateRip: сводка
Трек 1 нет в базе данных
Трек 2 нет в базе данных
Трек 3 нет в базе данных
Трек 4 нет в базе данных
Трек 5 нет в базе данных
Трек 6 нет в базе данных
Трек 7 нет в базе данных
Трек 8 нет в базе данных
Трек 9 нет в базе данных
Трек 10 нет в базе данных
Трек 11 нет в базе данных
Трек 12 точное извлечение (доверие 2) [7C9AA530]
Трек 13 точное извлечение (доверие 1) [DFBB8700]
Трек 14 точное извлечение (доверие 1) [109397C2]
3 трек(и) скопированы точно
11 трек(и) не содержатся в базе AccurateRip
Некоторые треки не прошли проверку на точность
Конец отчёта
CUE
 
скрытый текст
REM GENRE Avantgarde
REM DATE 2008
REM DISCID CC0CC80E
REM COMMENT "ExactAudioCopy v0.99pb5"
PERFORMER " The Wrong Objeckt"
TITLE "Stories from the shed"
FILE "The Wrong Objeckt - Stories from the shed.flac" WAVE
TRACK 01 AUDIO
TITLE "The Wrong Object / Sonic Riot at the Holy Palate"
PERFORMER " The Wrong Objeckt"
INDEX 01 00:00:00
TRACK 02 AUDIO
TITLE " / 15-05 "
PERFORMER " The Wrong Objeckt"
INDEX 01 02:52:07
TRACK 03 AUDIO
TITLE " / Sheepwrecked"
PERFORMER " The Wrong Objeckt"
INDEX 01 08:28:68
TRACK 04 AUDIO
TITLE " / Acquiring the Taste"
PERFORMER " The Wrong Objeckt"
INDEX 01 14:20:51
TRACK 05 AUDIO
TITLE " / Lifting Belly "
PERFORMER " The Wrong Objeckt"
INDEX 01 16:36:07
TRACK 06 AUDIO
TITLE " / Malign Siesta"
PERFORMER " The Wrong Objeckt"
INDEX 01 19:46:38
TRACK 07 AUDIO
TITLE " / Theresa s Dress"
PERFORMER " The Wrong Objeckt"
INDEX 01 25:20:49
TRACK 08 AUDIO
TITLE " / Rippling Stones"
PERFORMER " The Wrong Objeckt"
INDEX 01 26:42:52
TRACK 09 AUDIO
TITLE " / Theresa s Dress (reprise)"
PERFORMER " The Wrong Objeckt"
INDEX 01 29:28:45
TRACK 10 AUDIO
TITLE " / Strangler Fig"
PERFORMER " The Wrong Objeckt"
INDEX 01 30:35:11
TRACK 11 AUDIO
TITLE " / Waves and Radiations"
PERFORMER " The Wrong Objeckt"
INDEX 01 33:57:18
TRACK 12 AUDIO
TITLE " / Saturn"
PERFORMER " The Wrong Objeckt"
INDEX 01 37:19:18
TRACK 13 AUDIO
TITLE " / The Unbelievable Truth Part I "
PERFORMER " The Wrong Objeckt"
INDEX 01 44:12:05
TRACK 14 AUDIO
TITLE " / The Unbelievable Truth Part II"
PERFORMER " The Wrong Objeckt"
INDEX 01 49:57:04
http://www.myspace.com/wrongobject
Any questions -> support@pro-jazz.com. По всем вопросам пишите -> support@pro-jazz.com
00:34
163
Нет комментариев. Ваш будет первым!