Вы используете незарегистрированную версию компонента "Вкладки"!

Поиск

(avant-jazz/jazz-rock) Led Bib - Bring Your Own - 2011, FLAC (image+.cue) lossless

(avant-jazz/jazz-rock) Led Bib - Bring Your Own - 2011, FLAC (image+.cue) lossless
Треклист:
Led Bib / Bring Your Own
Жанр: avant-jazz/jazz-rock
Страна-производитель диска: USA
Год издания диска: 2011
Издатель (лейбл): Cuneiform Records
Номер по каталогу: Rune 311
Страна: UK
Аудио кодек: FLAC (*.flac)
Тип рипа: image+.cue
Битрейт аудио: lossless
Источник (релизер): собственный рип
Наличие сканов в содержимом раздачи: да
Треклист:
1. moth oil emmo
2. is thot o woodblock
3. little x
4. hollow ponds
5. power wolking
6. service stop soviour
7. engine room
8. shopes & sizes
9. walnuts
10. winter
 
Лог создания рипа
Exact Audio Copy V0.99 prebeta 5 from 4. May 2009
EAC extraction logfile from 22. January 2011, 11:51
Led Bib / Bring Your Own
Used drive : Optiarc DVD RW AD-7243S Adapter: 0 ID: 1
Read mode : Secure
Utilize accurate stream : Yes
Defeat audio cache : Yes
Make use of C2 pointers : No
Read offset correction : 48
Overread into Lead-In and Lead-Out : No
Fill up missing offset samples with silence : Yes
Delete leading and trailing silent blocks : No
Null samples used in CRC calculations : Yes
Used interface : Native Win32 interface for Win NT & 2000
Used output format : User Defined Encoder
Selected bitrate : 768 kBit/s
Quality : High
Add ID3 tag : No
Command line compressor : C:\Program Files\Exact Audio Copy\FLAC\FLAC.EXE
Additional command line options : -6 -V -T "ARTIST=%a" -T "TITLE=%t" -T "ALBUM=%g" -T "DATE=%y" -T "TRACKNUMBER=%n" -T "GENRE=%m" -T "COMMENT=%e" %s -o %d
TOC of the extracted CD
Track | Start | Length | Start sector | End sector
---------------------------------------------------------
1 | 0:00.00 | 4:17.49 | 0 | 19323
2 | 4:17.49 | 4:44.41 | 19324 | 40664
3 | 9:02.15 | 6:44.13 | 40665 | 70977
4 | 15:46.28 | 2:41.07 | 70978 | 83059
5 | 18:27.35 | 4:06.61 | 83060 | 101570
6 | 22:34.21 | 5:38.62 | 101571 | 126982
7 | 28:13.08 | 5:29.48 | 126983 | 151705
8 | 33:42.56 | 5:55.29 | 151706 | 178359
9 | 39:38.10 | 5:50.16 | 178360 | 204625
10 | 45:28.26 | 6:18.20 | 204626 | 232995
Range status and errors
Selected range
Filename C:\Documents and Settings\S\Мои документы\Torrent раздача\Led Bib - Bring Your Own.wav
Peak level 98.8 %
Range quality 100.0 %
Test CRC 0388DF5F
Copy CRC 0388DF5F
Copy OK
No errors occurred
AccurateRip summary
Track 1 not present in database
Track 2 not present in database
Track 3 not present in database
Track 4 not present in database
Track 5 not present in database
Track 6 not present in database
Track 7 not present in database
Track 8 not present in database
Track 9 not present in database
Track 10 not present in database
None of the tracks are present in the AccurateRip database
End of status report
 
Состав
Mark Holub - drums
Liran Donin - bass
Toby McLaren - alto-sax
Chris Williams - alto-sax
Другие раздачи
http://rutracker.org/forum/search.php?uid=17163016
Any questions -> support@pro-jazz.com. По всем вопросам пишите -> support@pro-jazz.com
07:47
273
Нет комментариев. Ваш будет первым!