Вы используете незарегистрированную версию компонента "Вкладки"!

Поиск

(Avant-Garde/Free Jazz/Progressive Jazz) Sun Ra - Strange Celestial Road - 1987, FLAC (image+.cue), lossless

(Avant-Garde/Free Jazz/Progressive Jazz) Sun Ra - Strange Celestial Road - 1987, FLAC (image+.cue), lossless
Треклист:
Sun Ra - Strange Celestial Road
Жанр: Avant-Garde/Free Jazz/Progressive Jazz
Год выпуска диска: 1987
Производитель диска: US (Rounder)
Аудио кодек: FLAC
Тип рипа: image+.cue
Битрейт аудио: lossless
Продолжительность: 35:25
Трэклист:
01. Celestrial Road (7:07)
02. Say (12:12)
03. I'll Wait for You (16:05)
 
EAC log
Exact Audio Copy V0.99 prebeta 3 from 28. July 2007
Отчёт EAC об извлечении, выполненном 18. марта 2009, 15:46
Sun Ra / Strange Celestial Road
Дисковод: HL-DT-STDVD-RAM GSA-H55N Adapter: 0 ID: 0
Режим чтения : Достоверность
Использование точного потока : Да
Отключение кэша аудио : Да
Использование указателей C2 : Нет
Коррекция смещения при чтении : 102
Способность читать области Lead-in и Lead-out : Нет
Заполнение пропущенных сэмплов тишиной : Да
Удаление блоков с тишиной в начале и конце : Нет
При вычислениях CRC использовались нулевые сэмплы : Нет
Интерфейс : Установленный внешний ASPI-интерфейс
Выходной формат : Пользовательский кодировщик
Выбранный битрейт : 768 kBit/s
Качество : Высокий
Добавление ID3-тэга : Нет
Утилита сжатия : C:\Program Files\Exact Audio Copy\FLAC\FLAC.EXE
Дополнительные параметры : -6 -V -T "ARTIST=%a" -T "TITLE=%t" -T "ALBUM=%g" -T "DATE=%y" -T "TRACKNUMBER=%n" -T "GENRE=%m" -T "COMMENT=%e" %s -o %d
TOC извлечённого CD
Трек | Старт | Длительность | Начальный сектор | Конечный сектор
---------------------------------------------------------------------
1 | 0:00.32 | 7:06.65 | 32 | 32046
2 | 7:07.22 | 12:12.13 | 32047 | 86959
3 | 19:19.35 | 16:05.37 | 86960 | 159371
Характеристики диапазона извлечения и сообщения об ошибках
Выбранный диапазон
Имя файла C:\Users\Миша\Documents\Sun Ra - Strange Celestial Road\Sun Ra - Strange Celestrial Road.wav
Пиковый уровень 82.9 %
Качество диапазона 100.0 %
CRC копии 287061DB
Копирование... OK
Ошибок не произошло
AccurateRip: сводка
Трек 1 точность не определена (достоверность 2) [913E7BB6], AccurateRip вернул [9CFF6B78]
Трек 2 точность не определена (достоверность 3) [9BB4AFF1], AccurateRip вернул [0C6FEBC3]
Трек 3 точность не определена (достоверность 3) [7A3605D7], AccurateRip вернул [FC18F79D]
Ни один трек не прошёл проверки на точность
В вашей базе может быть иной вариант штамповки диска
Конец отчёта

 
Доп. информация
Sun Ra, настоящее имя Herman Lee ‘Sonny’ Blount
22.05.1914, Бирмингем, шт. Алабама — 30.05.1993, Бирмингем, шт. Алабама
Пианист, руководитель оркестра, одна из самых спорных фигур в современном джазе. Его называют и «отцом фри-джаза», и «великим шарлатаном». Сан Ра всю жизнь стремился оставаться загадкой для окружающих, тщательно скрывал свое имя, день рождения, выдавал себя за человека Вселенной, а свою музыку называл искусством Вселенной.
Рос в городе Гэри (шт. Индиана), дебютировал в местных танцевальных оркестрах, в 1939 году приехал в Чикаго и работал в клубах. В 1946–47 играл в биг-бэнде Флетчера Хендерсона, написал несколько аранжировок, затем собрал трио, чтобы аккомпанировать Стаффу Смиту и Коулмену Хокинсу. В 1953 собрал биг-бэнд Sun Ra Arkestra или Sun Ra Solar Arkestra — нечто вроде коммуны, в которой сам выполнял роль гуру. Свою музыку представлял как послание из космоса. Первые альбомы Sun Songs, и Sound Of Joy выпустил на собственном лейбле Saturn, основанном в 1956 году. В дальнейшем регулярно выпускал по 2–3 пластинки в год, в середине 60-х годов сотрудничал с Гильдией джазовых композиторов, организовывал выступления на открытых площадках (например в Центральном парке Нью-Йорка), приглашая публику к соучастию. Театрализованные концерты, экзотические одежды музыкантов и музыка, замешанная на блюзе, фанке и фри-джазе, всегда вызывали много споров, но неизменно способствовали успеху. Состав оркестра долгое время оставался неизменным, хотя музыканты часто записывались и выступали в других составах. В разные годы ведущими солистами становились Мэрион Браун, Робин Юбенкс, Ричард Дэвис, Джулиан Пристер, Фэроу Сэндерс, Билли Хиггинс, Лестер Боуи, Дон Черри, Арчи Шепп и многие другие. В 1990 году Сан Ра и его оркестр участвовали в Московском международном фестивале.
Any questions -> support@pro-jazz.com. По всем вопросам пишите -> support@pro-jazz.com
09:32
235
Нет комментариев. Ваш будет первым!