Поиск

(Avant-Garde/Free Jazz) Kahil El'Zabar's Ritual Trio - Renaissance of the Resistance - 1994, FLAC (image+.cue), lossless

(Avant-Garde/Free Jazz) Kahil El'Zabar's Ritual Trio - Renaissance of the Resistance - 1994, FLAC (image+.cue), lossless
Треклист:
Kahil El'Zabar's Ritual Trio - Renaissance of the Resistance
Жанр: Avant-Garde/Free Jazz
Год выпуска диска: 1994
Производитель диска: Delmark
Аудио кодек: FLAC
Тип рипа: image+.cue
Битрейт аудио: lossless
Продолжительность: 60:04
Трэклист:
1 Sweet Meat 6:16
2 Ornette 9:06
3 Renaissance of the Resistance 10:27
4 Trane in Mind 8:01
5 Golden Sea 7:56
6 Fatsmo 13:41
7 Save Your Love for Me 4:37
Доп. информация: Ari Brown - Saxophone
Kahil El'Zabar - Drums, Vocals, Piano (Thumb)
Malachi Favors - Bass
 
Отчет ЕАС
Exact Audio Copy V0.99 prebeta 4 from 23. January 2008
Отчёт EAC об извлечении, выполненном 13. февраля 2009, 14:49
Kahil El' Zabar/Ritual Trio / Renaissance of the Resistance
Дисковод: TSSTcorpCDDVDW TS-L632H Adapter: 2 ID: 0
Режим чтения : Достоверность
Использование точного потока : Да
Отключение кэша аудио : Да
Использование указателей C2 : Нет
Коррекция смещения при чтении : 6
Способность читать области Lead-in и Lead-out : Нет
Заполнение пропущенных сэмплов тишиной : Да
Удаление блоков с тишиной в начале и конце : Нет
При вычислениях CRC использовались нулевые сэмплы : Да
Интерфейс : Установленный внешний ASPI-интерфейс
Выходной формат : Пользовательский кодировщик
Выбранный битрейт : 768 kBit/s
Качество : Высокий
Добавление ID3-тэга : Нет
Утилита сжатия : C:\Program Files\Exact Audio Copy\FLAC\FLAC.EXE
Дополнительные параметры : -6 -V -T "ARTIST=%a" -T "TITLE=%t" -T "ALBUM=%g" -T "DATE=%y" -T "TRACKNUMBER=%n" -T "GENRE=%m" -T "COMMENT=%e" %s -o %d
TOC извлечённого CD
Трек | Старт | Длительность | Начальный сектор | Конечный сектор
---------------------------------------------------------------------
1 | 0:00.00 | 6:20.00 | 0 | 28499
2 | 6:20.00 | 9:10.40 | 28500 | 69789
3 | 15:30.40 | 10:31.00 | 69790 | 117114
4 | 26:01.40 | 8:05.07 | 117115 | 153496
5 | 34:06.47 | 8:00.35 | 153497 | 189531
6 | 42:07.07 | 13:45.28 | 189532 | 251434
7 | 55:52.35 | 4:37.70 | 251435 | 272279
Характеристики диапазона извлечения и сообщения об ошибках
Выбранный диапазон
Имя файла F:\JAZZ\LOSSLESS\Kahil El' ZabarRitual Trio - Renaissance of the Resistance\Kahil El' Zabar Ritual Trio - Renaissance of the Resistance.wav
Пиковый уровень 98.8 %
Качество диапазона 100.0 %
CRC теста 1E6CEAB6
CRC копии 1E6CEAB6
Копирование... OK
Ошибок не произошло
Конец отчёта
По всем вопросам пишите личное сообщение пользователю M0p94ok.
08:07
168
Нет комментариев. Ваш будет первым!