Вы используете незарегистрированную версию компонента "Вкладки"!

Поиск

(Avant-Garde/Free Jazz) Archie Shepp Quartet - Splashes (Tribute to Wilbur Little) - 1987, FLAC (image+.cue), lossless

(Avant-Garde/Free Jazz) Archie Shepp Quartet - Splashes (Tribute to Wilbur Little) - 1987, FLAC (image+.cue), lossless
Треклист:
Archie Shepp Quartet - Splashes (Tribute to Wilbur Little)
Жанр: Avant-Garde/Free Jazz
Год выпуска диска: 1987
Производитель диска: L & R Music
Аудио кодек: FLAC
Тип рипа: image+.cue
Битрейт аудио: lossless
Продолжительность: 50:22
Трэклист:
1. Arrival
2. Steam
3. Reflexions
4. Relaxing At Camarillo
5. Manhattan
6. Groovin' High
Доп. информация: Archie Shepp (Tenor Sax)
Clifford Jarvis (Drums)
Harry Emmery (Bass)
Horace Parlan (Piano)
 
Отчет ЕАС
Exact Audio Copy V0.99 prebeta 4 from 23. January 2008
Отчёт EAC об извлечении, выполненном 14. февраля 2009, 13:25
Archie Shepp Quartet / Splashes
Дисковод: TSSTcorpCDDVDW TS-L632H Adapter: 2 ID: 0
Режим чтения : Достоверность
Использование точного потока : Да
Отключение кэша аудио : Да
Использование указателей C2 : Нет
Коррекция смещения при чтении : 6
Способность читать области Lead-in и Lead-out : Нет
Заполнение пропущенных сэмплов тишиной : Да
Удаление блоков с тишиной в начале и конце : Нет
При вычислениях CRC использовались нулевые сэмплы : Да
Интерфейс : Установленный внешний ASPI-интерфейс
Выходной формат : Пользовательский кодировщик
Выбранный битрейт : 768 kBit/s
Качество : Высокий
Добавление ID3-тэга : Нет
Утилита сжатия : C:\Program Files\Exact Audio Copy\FLAC\FLAC.EXE
Дополнительные параметры : -6 -V -T "ARTIST=%a" -T "TITLE=%t" -T "ALBUM=%g" -T "DATE=%y" -T "TRACKNUMBER=%n" -T "GENRE=%m" -T "COMMENT=%e" %s -o %d
TOC извлечённого CD
Трек | Старт | Длительность | Начальный сектор | Конечный сектор
---------------------------------------------------------------------
1 | 0:00.00 | 5:52.00 | 0 | 26399
2 | 5:52.00 | 10:18.72 | 26400 | 72821
3 | 16:10.72 | 6:55.58 | 72822 | 104004
4 | 23:06.55 | 8:51.47 | 104005 | 143876
5 | 31:58.27 | 10:20.08 | 143877 | 190384
6 | 42:18.35 | 8:08.25 | 190385 | 227009
Характеристики диапазона извлечения и сообщения об ошибках
Выбранный диапазон
Имя файла F:\JAZZ\LOSSLESS\Archie Shepp Quartet - Splashes\Archie Shepp Quartet - Splashes.wav
Пиковый уровень 95.5 %
Качество диапазона 99.9 %
CRC теста 38A303EB
CRC копии 38A303EB
Копирование... OK
Ошибок не произошло
Конец отчёта
Any questions -> support@pro-jazz.com. По всем вопросам пишите -> support@pro-jazz.com
08:10
220
Нет комментариев. Ваш будет первым!