Вы используете незарегистрированную версию компонента "Вкладки"!

Поиск

(Avant-Garde) World Saxophone Quartet (Hamiet Bluiett, Julius Hemphill, Oliver Lake, David Murray) - Rhythm and Blues (1988) - 1989, APE (image+.cue) lossless

(Avant-Garde) World Saxophone Quartet (Hamiet Bluiett, Julius Hemphill, Oliver Lake, David Murray) - Rhythm and Blues (1988) - 1989, APE (image+.cue) lossless
Треклист:
WORLD SAXOPHONE QUARTET - Rhythm and Blues
Жанр: Avant-Garde
Страна-производитель диска: USA
Год издания диска: 1989
Издатель (лейбл): Elektra / Musician (Elektra/Asylum/Nonesuch Records)
Номер по каталогу: 60864-2
Аудио кодек: APE(*.ape)
Тип рипа: image+.cue
Битрейт аудио: lossless
Продолжительность: 00:40:30
Источник (релизер): barin99
Наличие сканов в содержимом раздачи: да
Треклист:
1. For the Love of Money (4:16)
2. Let's Get It On (5:38)
3. I Heard That (4:52)
4. Loopology (3:14)
5. (Sittin' on) The Dock of the Bay (4:35)
6. Messin' with the Kid (4:09)
7. Try a Little Tenderness (6:33)
8. Nemesis (3:03)
9. Night Train (4:06)
Produced by Marty Khan and the World Saxophone Quartet
Recorded November 1988 at RCA Studios, New York City.
Personnel:
Hamiet Bluiett — Sax (Baritone), Clarinet (Alto)
Julius Hemphill — Sax (Alto)
Oliver Lake — Sax (Alto), Sax (Soprano)
David Murray — Clarinet (Bass), Sax (Tenor)
 
Лог создания рипа (EAC Log)
Exact Audio Copy V0.99 prebeta 4 from 23. January 2008
EAC extraction logfile from 3. December 2009, 20:40
World Saxophone Quartet / Rhythm and Blues
Used drive : HL-DT-STRW/DVD GCC-4242N Adapter: 1 ID: 0
Read mode : Secure
Utilize accurate stream : Yes
Defeat audio cache : Yes
Make use of C2 pointers : No
Read offset correction : 102
Overread into Lead-In and Lead-Out : No
Fill up missing offset samples with silence : Yes
Delete leading and trailing silent blocks : No
Null samples used in CRC calculations : Yes
Used interface : Native Win32 interface for Win NT & 2000
Used output format : Internal WAV Routines
Sample format : 44.100 Hz; 16 Bit; Stereo
TOC of the extracted CD
Track | Start | Length | Start sector | End sector
---------------------------------------------------------
1 | 0:00.32 | 4:16.50 | 32 | 19281
2 | 4:17.07 | 5:38.28 | 19282 | 44659
3 | 9:55.35 | 4:52.35 | 44660 | 66594
4 | 14:47.70 | 3:14.65 | 66595 | 81209
5 | 18:02.60 | 4:35.05 | 81210 | 101839
6 | 22:37.65 | 4:09.15 | 101840 | 120529
7 | 26:47.05 | 6:33.07 | 120530 | 150011
8 | 33:20.12 | 3:03.48 | 150012 | 163784
9 | 36:23.60 | 4:06.55 | 163785 | 182289
Range status and errors
Selected range
Filename C:\_\EAC_Out\Out\World Saxophone Quartet - Rhythm and Blues\World Saxophone Quartet - Rhythm and Blues.wav
Peak level 99.1 %
Range quality 100.0 %
Copy CRC B88CE162
Copy OK
No errors occurred
AccurateRip summary
Track 1 cannot be verified as accurate (confidence 5) [59485486], AccurateRip returned [7725C3F1]
Track 2 cannot be verified as accurate (confidence 5) [9868FC0F], AccurateRip returned [34F66C45]
Track 3 cannot be verified as accurate (confidence 5) [735293E8], AccurateRip returned [7C9A371D]
Track 4 cannot be verified as accurate (confidence 5) [71EAE679], AccurateRip returned [F5BD031B]
Track 5 cannot be verified as accurate (confidence 5) [6E96F4A0], AccurateRip returned [E504A4CD]
Track 6 cannot be verified as accurate (confidence 5) [7515EA22], AccurateRip returned [590979D2]
Track 7 cannot be verified as accurate (confidence 5) [B14C9F12], AccurateRip returned [EAC3695D]
Track 8 cannot be verified as accurate (confidence 5) [2FFE0782], AccurateRip returned [83273500]
Track 9 cannot be verified as accurate (confidence 5) [B5B0D1CF], AccurateRip returned [8B2E9AB2]
No tracks could be verified as accurate
You may have a different pressing from the one(s) in the database
End of status report
 
Содержание индексной карты (.CUE)
REM GENRE Jazz
REM DATE 1989
REM DISCID 83097E09
REM COMMENT "ExactAudioCopy v0.99pb4"
PERFORMER "World Saxophone Quartet"
TITLE "Rhythm and Blues"
FILE "World Saxophone Quartet - Rhythm and Blues.ape" WAVE
TRACK 01 AUDIO
TITLE "For the Love of Money"
PERFORMER "World Saxophone Quartet"
INDEX 00 00:00:00
INDEX 01 00:00:32
TRACK 02 AUDIO
TITLE "Let's Get It On"
PERFORMER "World Saxophone Quartet"
INDEX 00 04:14:32
INDEX 01 04:17:07
TRACK 03 AUDIO
TITLE "I Heard That"
PERFORMER "World Saxophone Quartet"
INDEX 00 09:50:60
INDEX 01 09:55:35
TRACK 04 AUDIO
TITLE "Loopology"
PERFORMER "World Saxophone Quartet"
INDEX 00 14:44:32
INDEX 01 14:47:70
TRACK 05 AUDIO
TITLE "(Sittin' on) The Dock of the Bay"
PERFORMER "World Saxophone Quartet"
INDEX 00 17:58:27
INDEX 01 18:02:60
TRACK 06 AUDIO
TITLE "Messin' with the Kid"
PERFORMER "World Saxophone Quartet"
INDEX 00 22:33:45
INDEX 01 22:37:65
TRACK 07 AUDIO
TITLE "Try a Little Tenderness"
PERFORMER "World Saxophone Quartet"
INDEX 00 26:44:25
INDEX 01 26:47:05
TRACK 08 AUDIO
TITLE "Nemesis"
PERFORMER "World Saxophone Quartet"
INDEX 00 33:17:07
INDEX 01 33:20:12
TRACK 09 AUDIO
TITLE "Night Train"
PERFORMER "World Saxophone Quartet"
INDEX 00 36:21:67
INDEX 01 36:23:60
 
AMG
"With tunes such as "Let's Get It On," "(Sittin' On) The Dock of the Bay," "Try a Little Tenderness" and "Night Train" being included, this CD certainly qualifies as one of the most unusual of all the World Saxophone Quartet recordings. Far from being a sellout to commercialism, this set features the WSQ (altoists Julius Hemphill and Oliver Lake, tenor saxophonist David Murray and baritonist Hamiet Bluiett) meeting the six soul and R&B tunes (which are joined by three complementary originals) head on. The WSQ was always open to playing rhythmically and was not allergic to strong melodies while including solo and group improvisations that were quite advanced. The combination works quite well on this surprising success."
Any questions -> support@pro-jazz.com. По всем вопросам пишите -> support@pro-jazz.com
13:05
317
Нет комментариев. Ваш будет первым!