Поиск

(Avant-Garde, Vocal Jazz, Folk-Jazz) Iva Bittová (Iva Bittova) - Classic - 1998, FLAC (tracks+.cue) lossless

(Avant-Garde, Vocal Jazz, Folk-Jazz) Iva Bittová (Iva Bittova) - Classic - 1998, FLAC (tracks+.cue) lossless
Треклист:
Iva Bittová (Iva Bittova) / Classic
Жанр: Avant-Garde, Vocal Jazz, Folk-Jazz
Год издания диска: 1998
Издатель (лейбл): Supraphon
Номер по каталогу: SU 3371-2 931
Страна: Czech Republic
Аудио кодек: FLAC (*.flac)
Тип рипа: tracks+.cue
Битрейт аудио: lossless
Продолжительность: 0:58:50
Источник (релизер): gerasim427724
Наличие сканов в содержимом раздачи: нет
Треклист:
01. Iva Bittova / Ouatuor pour Chora-1 (3:43)
02. Iva Bittova / Ouatuor pour Chora-1 (3:46)
03. Iva Bittova / Ouatuor pour Chora-3 (2:44)
04. Iva Bittova / Ouatuor pour Chora-4 (8:36)
05. Milos Stedron / Missa Zingarica (8:21)
06. Leos Janacek / Cekam Te (3:09)
07. Iva Bittova / Polykacka nozu (3:51)
08. Iva Bittova / Sarabanda (1:53)
09. Iva Bittova / Moravian folk song 1 (2:05)
10. Iva Bittova / Moravian folk song 2 (2:23)
11. Iva Bittova / Moravian folk song 3 (2:10)
12. Jan Amos Komensky / Ukolebavka (1:05)
13. Napevky / Napevky 1 (3:46)
14. Napevky / Napevky 2 (1:45)
15. Napevky / Napevky 3 (2:01)
16. Iva Bittova / Moravian folk song (3:56)
17. Iva Bittova / Kuk kuki kuk (0:41)
18. Iva Bittova / Melodiarium (2:55)
 
EAC log
отсутствует (
 
auCDtect's log
-----------------------
DON'T MODIFY THIS FILE
-----------------------
PERFORMER: auCDtect Task Manager, ver. 1.5.1RC3 build 1.5.1.4
Copyright (c) 2008-2010 y-soft. All rights reserved
http://y-soft.org
ANALYZER: auCDtect: CD records authenticity detector, version 0.8.2
Copyright (c) 2004 Oleg Berngardt. All rights reserved.
Copyright (c) 2004 Alexander Djourik. All rights reserved.
FILE: 18. Iva Bittova _ Melodiarium.flac
Size: 12608580 Hash: B6620603107160B48833AED7698FE166 Accuracy: -m0
Conclusion: CDDA 100%
Signature: 69D2A018114EC2B1D2EF6E4FE79FCD1AF1A22A7C
FILE: 17. Iva Bittova _ Kuk kuki kuk.flac
Size: 3079850 Hash: CF0878B3E90C38D2C07CD93D31D3FE11 Accuracy: -m0
Conclusion: CDDA 100%
Signature: 28843CA43D13C7CF112E6F756ED8E04D34A616D8
FILE: 16. Iva Bittova _ Moravian folk song.flac
Size: 21556846 Hash: CE5EC0856BC93813971F9B466506437D Accuracy: -m0
Conclusion: CDDA 100%
Signature: 9E9B280C07840C98A760BEECA3659EE9C1C4D40D
FILE: 15. Napevky _ Napevky 3.flac
Size: 11072511 Hash: 3810BD8009B025996652DBFE149D4F3F Accuracy: -m0
Conclusion: CDDA 100%
Signature: 40D6AEAB856738F430CAD747D0F969E5227B059F
FILE: 14. Napevky _ Napevky 2.flac
Size: 9764457 Hash: ADC4803639546A992D3F330B95F25124 Accuracy: -m0
Conclusion: CDDA 100%
Signature: 78A11371A744CE108AC21D7F82C25C5C05F968BE
FILE: 13. Napevky _ Napevky 1.flac
Size: 16865651 Hash: 724DC4BE60E12004D6B7240DD0A78587 Accuracy: -m0
Conclusion: CDDA 100%
Signature: 6BBD0D18365C10AA89A040DFE2AD8F7A9D99D0E7
FILE: 12. Jan Amos Komensky _ Ukolebavka.flac
Size: 5740229 Hash: 13E1D13C6B844E0406D989EE7AFF8EA0 Accuracy: -m0
Conclusion: CDDA 100%
Signature: FA424B133C4BCDD016AFFD36CFDA044392625EC0
FILE: 11. Iva Bittova _ Moravian folk song 3.flac
Size: 12480968 Hash: B636949AA8AE68E559202EFC889199B7 Accuracy: -m0
Conclusion: CDDA 100%
Signature: D14517123ECAB30B38CCDFA521DA557A98F4A82B
FILE: 09. Iva Bittova _ Moravian folk song 1.flac
Size: 11423970 Hash: A8F690395796C2FB296278064BA5680C Accuracy: -m0
Conclusion: CDDA 100%
Signature: EFDEBAA65CDC439295B2B943EB0E80A3C6CA897A
FILE: 08. Iva Bittova _ Sarabanda.flac
Size: 7389385 Hash: B0684BFCE1ADD7594EC7D4809819E108 Accuracy: -m0
Conclusion: CDDA 100%
Signature: A5C7A03C8D349B2B49813565FE938A7D563B70C1
FILE: 07. Iva Bittova _ Polykacka nozu.flac
Size: 21422026 Hash: BA85F7ACFF535CA5D57C53B794CE56A2 Accuracy: -m0
Conclusion: CDDA 100%
Signature: FB923E4F3C8EFBB249AC813AD0B7E30508E11767
FILE: 06. Leos Janacek _ Cekam Te.flac
Size: 14445099 Hash: 5A7C3290F73C44D72966AE89C221E0E0 Accuracy: -m0
Conclusion: CDDA 100%
Signature: ECB7B1D108FB60EDD8ABBE1FF02F922F18C3D853
FILE: 05. Milos Stedron _ Missa Zingarica.flac
Size: 36714733 Hash: 7366235D582E87F1CE5C36E31C1104DC Accuracy: -m0
Conclusion: CDDA 100%
Signature: 10803CFD9690CC85D107787D6E1330DEE7EE3233
FILE: 04. Iva Bittova _ Ouatuor pour Chora-4.flac
Size: 29583620 Hash: 44853786BD7D0299AF5A6672F8E245C2 Accuracy: -m0
Conclusion: CDDA 100%
Signature: D964B1DC392DC49E96ACE079E53CB6E1FE820C23
FILE: 03. Iva Bittova _ Ouatuor pour Chora-3.flac
Size: 11285172 Hash: CD831E5E438814A127E74A44432879EF Accuracy: -m0
Conclusion: CDDA 99%
Signature: E909F1DE0248E1D1C7C38F33A11D80F066DA12BD
FILE: 02. Iva Bittova _ Ouatuor pour Chora-1.flac
Size: 15410215 Hash: 469B852B7B245655B81F34A4F0AD8BE8 Accuracy: -m0
Conclusion: CDDA 100%
Signature: 6B756EC2BE72C6F8A219CF8EB5234620582CCEEE
FILE: 01. Iva Bittova _ Ouatuor pour Chora-1.flac
Size: 12950748 Hash: A441038325331C21C2B03FABC0750692 Accuracy: -m0
Conclusion: CDDA 100%
Signature: 70307F5942370954FDC7612D41D2B0A19D6000E7
 
.cue
PERFORMER "Iva Bittova"
TITLE "Classic"
REM DATE 1998
REM GENRE "National Folk"
FILE "01. Iva Bittova _ Ouatuor pour Chora-1.flac" WAVE
TRACK 01 AUDIO
TITLE "Iva Bittova / Ouatuor pour Chora-1"
PERFORMER "Iva Bittova"
INDEX 01 00:00:00
FILE "02. Iva Bittova _ Ouatuor pour Chora-1.flac" WAVE
TRACK 02 AUDIO
TITLE "Iva Bittova / Ouatuor pour Chora-1"
PERFORMER "Iva Bittova"
INDEX 01 00:00:00
FILE "03. Iva Bittova _ Ouatuor pour Chora-3.flac" WAVE
TRACK 03 AUDIO
TITLE "Iva Bittova / Ouatuor pour Chora-3"
PERFORMER "Iva Bittova"
INDEX 01 00:00:00
FILE "04. Iva Bittova _ Ouatuor pour Chora-4.flac" WAVE
TRACK 04 AUDIO
TITLE "Iva Bittova / Ouatuor pour Chora-4"
PERFORMER "Iva Bittova"
INDEX 01 00:00:00
FILE "05. Milos Stedron _ Missa Zingarica.flac" WAVE
TRACK 05 AUDIO
TITLE "Milos Stedron / Missa Zingarica"
PERFORMER "Iva Bittova"
INDEX 01 00:00:00
FILE "06. Leos Janacek _ Cekam Te.flac" WAVE
TRACK 06 AUDIO
TITLE "Leos Janacek / Cekam Te"
PERFORMER "Iva Bittova"
INDEX 01 00:00:00
FILE "07. Iva Bittova _ Polykacka nozu.flac" WAVE
TRACK 07 AUDIO
TITLE "Iva Bittova / Polykacka nozu"
PERFORMER "Iva Bittova"
INDEX 01 00:00:00
FILE "08. Iva Bittova _ Sarabanda.flac" WAVE
TRACK 08 AUDIO
TITLE "Iva Bittova / Sarabanda"
PERFORMER "Iva Bittova"
INDEX 01 00:00:00
FILE "09. Iva Bittova _ Moravian folk song 1.flac" WAVE
TRACK 09 AUDIO
TITLE "Iva Bittova / Moravian folk song 1"
PERFORMER "Iva Bittova"
INDEX 01 00:00:00
FILE "10. Iva Bittova _ Moravian folk song 2.flac" WAVE
TRACK 10 AUDIO
TITLE "Iva Bittova / Moravian folk song 2"
PERFORMER "Iva Bittova"
INDEX 01 00:00:00
FILE "11. Iva Bittova _ Moravian folk song 3.flac" WAVE
TRACK 11 AUDIO
TITLE "Iva Bittova / Moravian folk song 3"
PERFORMER "Iva Bittova"
INDEX 01 00:00:00
FILE "12. Jan Amos Komensky _ Ukolebavka.flac" WAVE
TRACK 12 AUDIO
TITLE "Jan Amos Komensky / Ukolebavka"
PERFORMER "Iva Bittova"
INDEX 01 00:00:00
FILE "13. Napevky _ Napevky 1.flac" WAVE
TRACK 13 AUDIO
TITLE "Napevky / Napevky 1"
PERFORMER "Iva Bittova"
INDEX 01 00:00:00
FILE "14. Napevky _ Napevky 2.flac" WAVE
TRACK 14 AUDIO
TITLE "Napevky / Napevky 2"
PERFORMER "Iva Bittova"
INDEX 01 00:00:00
FILE "15. Napevky _ Napevky 3.flac" WAVE
TRACK 15 AUDIO
TITLE "Napevky / Napevky 3"
PERFORMER "Iva Bittova"
INDEX 01 00:00:00
FILE "16. Iva Bittova _ Moravian folk song.flac" WAVE
TRACK 16 AUDIO
TITLE "Iva Bittova / Moravian folk song"
PERFORMER "Iva Bittova"
INDEX 01 00:00:00
FILE "17. Iva Bittova _ Kuk kuki kuk.flac" WAVE
TRACK 17 AUDIO
TITLE "Iva Bittova / Kuk kuki kuk"
PERFORMER "Iva Bittova"
INDEX 01 00:00:00
FILE "18. Iva Bittova _ Melodiarium.flac" WAVE
TRACK 18 AUDIO
TITLE "Iva Bittova / Melodiarium"
PERFORMER "Iva Bittova"
INDEX 01 00:00:00
 
Log Accurip
[Verification date: 04.02.2011 0:26:57]
[Disc ID: 002cb660-023c5cbe-e20dca12]
Disk not present in database.
Track [ CRC32 ] [W/O NULL] [ LOG ]
-- [FE34E482] [334C3CA9]
01 [54E3AD09] [7D1F98F6]
02 [A305A7A3] [43FA1A26]
03 [C88C8D65] [17B29F30]
04 [33700D75] [C3217B88]
05 [D6D668E7] [9DE6E8EB]
06 [94351E6A] [EBF60620]
07 [9BD8DC6B] [FA98328E]
08 [2506235C] [8871EC88]
09 [2A2A79D4] [688F2482]
10 [1AA210EC] [AFCC428D]
11 [D5487C7A] [08810AB0]
12 [4A3ABD11] [67AA7F34]
13 [7DA195D5] [235529F6]
14 [78562AB0] [A3ADC03B]
15 [800C810B] [24C769BB]
16 [1578A7B8] [E34979A2]
17 [88593DD8] [2FC74FDD]
18 [EDD378ED] [949126CF]
20:18
317
Нет комментариев. Ваш будет первым!