Поиск

(Avant-Garde, Vocal Jazz, Folk-Jazz, ECM) Iva Bittová (Iva Bittova) and Vladimír Godár (Vladimir Godar) - Mater - 2006, FLAC (tracks+.cue), lossless

(Avant-Garde, Vocal Jazz, Folk-Jazz, ECM) Iva Bittová (Iva Bittova) and Vladimír Godár (Vladimir Godar) - Mater - 2006, FLAC (tracks+.cue), lossless
Треклист:
Iva Bittová and Vladimír Godár - Mater
Жанр: Avant-Garde, Vocal Jazz, Folk-Jazz
Год выпуска диска: 2006
Производитель диска: ECM New Series 1985
Аудио кодек: FLAC
Тип рипа: tracks+.cue
Битрейт аудио: lossless
Продолжительность: 0:56:45
Трэклист:
01. Maykomashalon (3:46)
02. Magnificat (9:42)
03. Lullabies (8:17)
04. Ecce puer (6:19)
05. Mother Stood (19:32)
06. Regina Coeli (5:32)
07. Maykomashmalon (3:37)
 
EAC log
Exact Audio Copy V0.99 prebeta 4 from 23. January 2008
EAC extraction logfile from 19. February 2010, 17:02
Vladimнr Godбr / Mater
Used drive : Optiarc DVD RW AD-7170S Adapter: 3 ID: 0
Read mode : Secure
Utilize accurate stream : Yes
Defeat audio cache : Yes
Make use of C2 pointers : No
Read offset correction : 48
Overread into Lead-In and Lead-Out : No
Fill up missing offset samples with silence : Yes
Delete leading and trailing silent blocks : No
Null samples used in CRC calculations : Yes
Used interface : Native Win32 interface for Win NT & 2000
Gap handling : Appended to previous track
Used output format : User Defined Encoder
Selected bitrate : 896 kBit/s
Quality : High
Add ID3 tag : No
Command line compressor : C:\Temp\Software\Audio\Exact Audio Copy\Flac\flac.exe
Additional command line options : -V -8 -T "artist=%a" -T "title=%t" -T "album=%g" -T "date=%y" -T "tracknumber=%n" -T "genre=%m" %s
TOC of the extracted CD
Track | Start | Length | Start sector | End sector
---------------------------------------------------------
1 | 0:00.00 | 3:46.31 | 0 | 16980
2 | 3:46.31 | 9:42.19 | 16981 | 60649
3 | 13:28.50 | 8:16.42 | 60650 | 97891
4 | 21:45.17 | 6:19.25 | 97892 | 126341
5 | 28:04.42 | 19:31.57 | 126342 | 214223
6 | 47:36.24 | 5:32.16 | 214224 | 239139
7 | 53:08.40 | 3:36.51 | 239140 | 255390
Track 1
Filename D:\Uploads\Vladimнr Godбr - Mater [FLAC] - 2006\01 Maykomashalon.wav
Pre-gap length 0:00:02.00
Peak level 47.8 %
Track quality 100.0 %
Test CRC 3BB74B0F
Copy CRC 3BB74B0F
Accurately ripped (confidence 6) [A6F70611]
Copy OK
Track 2
Filename D:\Uploads\Vladimнr Godбr - Mater [FLAC] - 2006\02 Magnificat.wav
Pre-gap length 0:00:07.06
Peak level 98.8 %
Track quality 100.0 %
Test CRC AC3CD21D
Copy CRC AC3CD21D
Accurately ripped (confidence 6) [A89D7E7C]
Copy OK
Track 3
Filename D:\Uploads\Vladimнr Godбr - Mater [FLAC] - 2006\03 Lullabies.wav
Pre-gap length 0:00:07.02
Peak level 75.4 %
Track quality 100.0 %
Test CRC 9C6C0350
Copy CRC 9C6C0350
Accurately ripped (confidence 6) [829D0E2F]
Copy OK
Track 4
Filename D:\Uploads\Vladimнr Godбr - Mater [FLAC] - 2006\04 Ecce puer.wav
Pre-gap length 0:00:07.00
Peak level 50.8 %
Track quality 100.0 %
Test CRC 44ECB50B
Copy CRC 44ECB50B
Accurately ripped (confidence 6) [59E40733]
Copy OK
Track 5
Filename D:\Uploads\Vladimнr Godбr - Mater [FLAC] - 2006\05 Mother Stood.wav
Pre-gap length 0:00:06.97
Peak level 98.9 %
Track quality 100.0 %
Test CRC 64D2A873
Copy CRC 64D2A873
Accurately ripped (confidence 5) [E4DDE6E9]
Copy OK
Track 6
Filename D:\Uploads\Vladimнr Godбr - Mater [FLAC] - 2006\06 Regina Coeli.wav
Pre-gap length 0:00:06.94
Peak level 98.8 %
Track quality 100.0 %
Test CRC 5EFFBD5F
Copy CRC 5EFFBD5F
Accurately ripped (confidence 6) [A68EC808]
Copy OK
Track 7
Filename D:\Uploads\Vladimнr Godбr - Mater [FLAC] - 2006\07 Maykomashmalon.wav
Pre-gap length 0:00:29.89
Peak level 31.6 %
Track quality 100.0 %
Test CRC 49AE3BF3
Copy CRC 49AE3BF3
Accurately ripped (confidence 6) [F8B78E74]
Copy OK
All tracks accurately ripped
No errors occurred
End of status report
 
Audiocheker's log
Started at: вторник, 13. 04. 2010. - 0:32.56
7 files found
1 -===- I:\Downloads\Iva Bittova and Vladimir Godar - Mater (2006)\01 Maykomashalon.flac
Extracted successfully
Conclusion: this track is CDDA with probability 100%
Tempfile successfully deleted.
2 -===- I:\Downloads\Iva Bittova and Vladimir Godar - Mater (2006)\02 Magnificat.flac
Extracted successfully
Conclusion: this track is CDDA with probability 99%
Tempfile successfully deleted.
3 -===- I:\Downloads\Iva Bittova and Vladimir Godar - Mater (2006)\03 Lullabies.flac
Extracted successfully
Conclusion: this track is CDDA with probability 100%
Tempfile successfully deleted.
4 -===- I:\Downloads\Iva Bittova and Vladimir Godar - Mater (2006)\04 Ecce puer.flac
Extracted successfully
Conclusion: this track is CDDA with probability 100%
Tempfile successfully deleted.
5 -===- I:\Downloads\Iva Bittova and Vladimir Godar - Mater (2006)\05 Mother Stood.flac
Extracted successfully
Conclusion: this track is CDDA with probability 100%
Tempfile successfully deleted.
6 -===- I:\Downloads\Iva Bittova and Vladimir Godar - Mater (2006)\06 Regina Coeli.flac
Extracted successfully
Conclusion: this track is CDDA with probability 99%
Tempfile successfully deleted.
7 -===- I:\Downloads\Iva Bittova and Vladimir Godar - Mater (2006)\07 Maykomashmalon.flac
Extracted successfully
Conclusion: this track is CDDA with probability 100%
Tempfile successfully deleted.
Finished at: вторник, 13. 04. 2010. - 0:51.00 (operation time: 0:18.04)
 
.cue
REM GENRE Classical
REM DATE 2006
REM DISCID 5B0D4D07
REM COMMENT "ExactAudioCopy v0.99pb4"
FILE "Vladimнr Godбr - Mater [FLAC] - 2006\01 Maykomashalon.wav" WAVE
TRACK 01 AUDIO
FLAGS DCP
INDEX 01 00:00:00
TRACK 02 AUDIO
FLAGS DCP
INDEX 00 03:39:26
FILE "Vladimнr Godбr - Mater [FLAC] - 2006\02 Magnificat.wav" WAVE
INDEX 01 00:00:00
TRACK 03 AUDIO
FLAGS DCP
INDEX 00 09:35:17
FILE "Vladimнr Godбr - Mater [FLAC] - 2006\03 Lullabies.wav" WAVE
INDEX 01 00:00:00
TRACK 04 AUDIO
FLAGS DCP
INDEX 00 08:09:42
FILE "Vladimнr Godбr - Mater [FLAC] - 2006\04 Ecce puer.wav" WAVE
INDEX 01 00:00:00
TRACK 05 AUDIO
FLAGS DCP
INDEX 00 06:12:27
FILE "Vladimнr Godбr - Mater [FLAC] - 2006\05 Mother Stood.wav" WAVE
INDEX 01 00:00:00
TRACK 06 AUDIO
FLAGS DCP
INDEX 00 19:24:61
FILE "Vladimнr Godбr - Mater [FLAC] - 2006\06 Regina Coeli.wav" WAVE
INDEX 01 00:00:00
TRACK 07 AUDIO
FLAGS DCP
INDEX 00 05:02:24
FILE "Vladimнr Godбr - Mater [FLAC] - 2006\07 Maykomashmalon.wav" WAVE
INDEX 01 00:00:00
Доп. информация:
Источник - другой трекер. Сканов нет. Релизер - G4S.
Предпрослушка.
15:03
350
Нет комментариев. Ваш будет первым!