Вы используете незарегистрированную версию компонента "Вкладки"!

Поиск

(Avant-Garde, Tzadik) Mike Patton - Pranzo Oltranzista - 1997, FLAC (image+.cue), lossless

Треклист:
Mike Patton - Pranzo Oltranzista
Musica Da Tavola Per Cinque (Banquet Music For Five Players)
Жанр: Avant-Garde, Tzadik
Год выпуска диска: 1997
Производитель диска: US
Аудио кодек: FLAC
Тип рипа: image+.cue
Битрейт аудио: lossless
Продолжительность: 31:50
Трэклист:
1 Elettricità Atmospheriche Candite (1:22)
2 Carne Cruda Squarciata Dal Suono Di Sassofono (2:35)
3 Vivanda In Scodella (3:17)
4 Guerrainletto (1:53)
5 Contorno Tattile (Per Russolo) (2:05)
6 I Rumori Nutrienti (4:29)
7 Garofani Allo Spiedo (2:59)
8 Aerovivanda (2:35)
9 Scoppioingola (3:02)
10 Latte Alla Luce Verde (3:28)
11 Bombe A Mano (4:00)
Erik Friedlander: Cello
Mike Patton: Voice, Sound Effects
Marc Ribot: Guitar
William Winant: Percussion
John Zorn: Alto Saxophone
Доп. информация:
 
EAC log
Exact Audio Copy V0.99 prebeta 4 from 23. January 2008
Отчёт EAC об извлечении, выполненном 5. июля 2009, 17:48
Mike Patton / Pranzo Oltranzista
Дисковод: PBDS DVD+-RW DS-8W1P Adapter: 0 ID: 0
Режим чтения : Достоверность
Использование точного потока : Да
Отключение кэша аудио : Да
Использование указателей C2 : Нет
Коррекция смещения при чтении : 594
Способность читать области Lead-in и Lead-out : Нет
Заполнение пропущенных сэмплов тишиной : Да
Удаление блоков с тишиной в начале и конце : Нет
При вычислениях CRC использовались нулевые сэмплы : Нет
Интерфейс : Встроенный Win32-интерфейс для Win NT/2000
Выходной формат : Внутренние WAV-операции
Формат сэмплов : 44.100 Гц; 16 бит; стерео
TOC извлечённого CD
Трек | Старт | Длительность | Начальный сектор | Конечный сектор
---------------------------------------------------------------------
1 | 0:00.00 | 1:22.00 | 0 | 6149
2 | 1:22.00 | 2:35.47 | 6150 | 17821
3 | 3:57.47 | 3:17.53 | 17822 | 32649
4 | 7:15.25 | 1:53.47 | 32650 | 41171
5 | 9:08.72 | 2:05.45 | 41172 | 50591
6 | 11:14.42 | 4:29.20 | 50592 | 70786
7 | 15:43.62 | 2:59.65 | 70787 | 84276
8 | 18:43.52 | 2:35.43 | 84277 | 95944
9 | 21:19.20 | 3:02.15 | 95945 | 109609
10 | 24:21.35 | 3:28.19 | 109610 | 125228
11 | 27:49.54 | 4:00.51 | 125229 | 143279
Характеристики диапазона извлечения и сообщения об ошибках
Выбранный диапазон
Имя файла D:\Upload\Mike Patton - Pranzo Oltranzista\Mike Patton - Pranzo Oltranzista.wav
Пиковый уровень 98.8 %
Качество диапазона 99.9 %
CRC копии A66CCED2
Копирование... OK
Ошибок не произошло
AccurateRip: сводка
Трек 1 точное извлечение (доверие 2) [BACD8A2F]
Трек 2 точное извлечение (доверие 2) [02B1E849]
Трек 3 точное извлечение (доверие 2) [7C76868A]
Трек 4 точное извлечение (доверие 2) [E7BCB012]
Трек 5 точное извлечение (доверие 2) [D45780B3]
Трек 6 точное извлечение (доверие 2) [B4B74A17]
Трек 7 точное извлечение (доверие 2) [2A17B666]
Трек 8 точное извлечение (доверие 2) [85971CD8]
Трек 9 точное извлечение (доверие 2) [6A0402ED]
Трек 10 точное извлечение (доверие 2) [9EF44B5E]
Трек 11 точное извлечение (доверие 2) [C8AE65C9]
Все треки извлечены точно
Конец отчёта
 
Tzadik
Following the remarkable success of his solo debut, Adult Themes (Tzadik 7015), Mike Patton, best known as the vocalist of Faith No More and Mr. Bungle, steps out as a composer.
Patton's extended composition, Pranzo Oltranzista: Musica da Ravola per Cinque (Banquet Piece for Five Players) is inspired by Filippo Tommaso Marinetti's Futurist Cookbook (1932). Performed by an all-star ensemble, Pranzo Oltranzista magically transports the listener to a surreal ambient world of the unexpected.
In addition to his rock career, Mr. Patton has worked with the Rova Saxophone Quartet, Bob Ostertag, the Kronos Quartet, David Shea, Bill Laswell and John Zorn.
Рецепты см. в сканах
Any questions -> support@pro-jazz.com. По всем вопросам пишите -> support@pro-jazz.com
12:55
238
Нет комментариев. Ваш будет первым!