Вы используете незарегистрированную версию компонента "Вкладки"!

Поиск

(avant-garde) Susanna Borsch - Off-Limits - 2006, APE (image+.cue), lossless

(avant-garde) Susanna Borsch - Off-Limits - 2006, APE (image+.cue), lossless
Треклист:
Susanna Borsch / Off-Limits
Жанр: avant-garde
Год издания диска: 2006
Издатель (лейбл): Karnatic Lab
Номер по каталогу: KLR 007
Аудиокодек: APE (*.ape)
Тип рипа: image+.cue
Битрейт аудио: lossless
Продолжительность: 59:13
Источник (релизер): скачано из интернета
Наличие сканов в содержимом раздачи: да
Треклист:
01. Ti-Tse (Anonymous - Chin.Trad.)
02. Brat (Donnacha Dennehy)
03. Click & Pitch (Toek Numan)
04. Contour (Sohrab Uduman)
05. Workshop (Ned McGowan)
06. Winter In/m April (Merlijn Twaalfhoven)
07. ...Again Into Light: Solo (Mike Vaughan)
08. Maní Eléctrico (Keyla Orozco)
09. Sîrba voor Susanna (Gijs Levelt)
 
Лог создания рипа
EAC extraction logfile from 7. June 2011, 21:56 for CD
Susanna Borsch / Off-Limits
Used drive : TSSTcorpCDDVDW SH-S222L Adapter: 0 ID: 0
Read mode : Secure with NO C2, accurate stream, NO disable cache
Read offset correction : 6
Overread into Lead-In and Lead-Out : No
Used output format : C:\Program Files\Exact Audio Copy\MAC.exe (Monkey's Audio Lossless Encoder)
Fast Lossless Compression
Other options :
Fill up missing offset samples with silence : Yes
Delete leading and trailing silent blocks : No
Native Win32 interface for Win NT & 2000
Range status and errors
Selected range
Filename D:\susanna borsch - off-limits\Susanna Borsch - Off-Limits.wav
Peak level 100.0 %
Range quality 100.0 %
CRC 0A28BAA0
Copy OK
No errors occured
End of status report
------------------------------------------------------------
EAC extraction logfile from 7. June 2011, 21:56 for CD
Susanna Borsch / Off-Limits
Used drive : TSSTcorpCDDVDW SH-S222L Adapter: 0 ID: 0
Read mode : Secure with NO C2, accurate stream, NO disable cache
Read offset correction : 6
Overread into Lead-In and Lead-Out : No
Used output format : C:\Program Files\Exact Audio Copy\MAC.exe (Monkey's Audio Lossless Encoder)
Fast Lossless Compression
Other options :
Fill up missing offset samples with silence : Yes
Delete leading and trailing silent blocks : No
Native Win32 interface for Win NT & 2000
Range status and errors
Selected range
Filename D:\susanna borsch - off-limits\Susanna Borsch - Off-Limits.wav
Peak level 100.0 %
Range quality 100.0 %
CRC 0A28BAA0
Copy OK
No errors occured
End of status report
 
Содержание индексной карты (.CUE)
REM GENRE Avantgarde
REM DATE 2006
REM DISCID 740DE109
REM COMMENT "ExactAudioCopy v0.95b4"
PERFORMER "Susanna Borsch"
TITLE "Off-Limits"
FILE "Susanna Borsch - Off-Limits.ape" WAVE
TRACK 01 AUDIO
TITLE "Ti-Tse (Anonymous - Chin.Trad.)"
PERFORMER "Susanna Borsch"
INDEX 01 00:00:00
TRACK 02 AUDIO
TITLE "Brat (Donnacha Dennehy)"
PERFORMER "Susanna Borsch"
INDEX 00 03:01:49
INDEX 01 03:04:49
TRACK 03 AUDIO
TITLE "Click & Pitch (Toek Numan)"
PERFORMER "Susanna Borsch"
INDEX 00 08:51:50
INDEX 01 08:54:50
TRACK 04 AUDIO
TITLE "Contour (Sohrab Uduman)"
PERFORMER "Susanna Borsch"
INDEX 00 16:37:47
INDEX 01 16:40:47
TRACK 05 AUDIO
TITLE "Workshop (Ned McGowan)"
PERFORMER "Susanna Borsch"
INDEX 00 22:12:74
INDEX 01 22:15:74
TRACK 06 AUDIO
TITLE "Winter In/m April (Merlijn Twaalfhoven)"
PERFORMER "Susanna Borsch"
INDEX 00 34:14:50
INDEX 01 34:20:50
TRACK 07 AUDIO
TITLE "...Again Into Light: Solo (Mike Vaughan)"
PERFORMER "Susanna Borsch"
INDEX 00 42:41:50
INDEX 01 42:44:50
TRACK 08 AUDIO
TITLE "Manн Elйctrico (Keyla Orozco)"
PERFORMER "Susanna Borsch"
INDEX 00 49:51:12
INDEX 01 49:54:12
TRACK 09 AUDIO
TITLE "Sоrba voor Susanna (Gijs Levelt)"
PERFORMER "Susanna Borsch"
INDEX 00 57:01:09
INDEX 01 57:02:09
 
Лог проверки качества
-----------------------
DON'T MODIFY THIS FILE
-----------------------
PERFORMER: auCDtect Task Manager, ver. 1.5.1RC6 build 1.5.1.7
Copyright (c) 2008-2010 y-soft. All rights reserved
http://y-soft.org
ANALYZER: auCDtect: CD records authenticity detector, version 0.8.2
Copyright (c) 2004 Oleg Berngardt. All rights reserved.
Copyright (c) 2004 Alexander Djourik. All rights reserved.
FILE: Susanna Borsch - Off-Limits.wav
Size: 626779920 Hash: F915DEA37C1F24EB8FDEAA596B79840E Accuracy: -m0
Conclusion: CDDA 100%
Signature: C75BF1B9DB53ABE0BFF831E6EFF33FC88F75EF1A
 
Скриншот спектра частот
 
Мои раздачи
CDDA Christiana - The night wants - 1993 http://rutracker.org/forum/viewtopic.php?t=3973946
CDDA Daniela Mercury 1998 MPBnoJT http://rutracker.org/forum/viewtopic.php?t=3968096
CDDA Falco (Axel Herrig) 2000 FMA (Falco Meets Amadeus) http://rutracker.org/forum/viewtopic.php?t=3963695
CDDA Fredrik Kempe 2002 Songs For You Broken Heart http://rutracker.org/forum/viewtopic.php?t=3964025
CDDA Fredrik Kempe 2004 Boheme http://rutracker.org/forum/viewtopic.php?t=3964043
CDDA Gerardina Trovato 1993 Gerardina Trovato http://rutracker.org/forum/viewtopic.php?t=3965217
CDDA Irene Fargo - La voce magica della luna - 1991 http://rutracker.org/forum/viewtopic.php?t=3973774
CDDA Irene Fargo 1993 Labirinti Del Cuore http://rutracker.org/forum/viewtopic.php?t=3963944
CDDA Iva Zanicchi 1997 Serie Club http://rutracker.org/forum/viewtopic.php?t=3963798
CDDA Joan Jett 1979 Joan Jett (1995) [Fan Club Edition] http://rutracker.org/forum/viewtopic.php?t=3966230
CDDA Kozmic Muffin 1994 Nautilus http://rutracker.org/forum/viewtopic.php?t=3972423
CDDA Kraftwerk 1997 Computersinfonien 2CD (Live in Karlsruhe 18-10-97 bootleg) http://rutracker.org/forum/viewtopic.php?t=3967532
CDDA Krystl 2011 Rolling http://rutracker.org/forum/viewtopic.php?t=3967889
CDDA Malena Ernmann 2009 La Voux Du Nord (2CD) http://rutracker.org/forum/viewtopic.php?t=3963766
CDDA Martin Matalon - Le Scorpion - 2004 http://rutracker.org/forum/viewtopic.php?t=3973979
CDDA Matia Bazar 2011 Fantasia-Best & Rariries http://rutracker.org/forum/viewtopic.php?t=3958081
CDDA Milva 1992 Quattro Vestiti http://rutracker.org/forum/viewtopic.php?t=3968377
CDDA Petra Berger 2001 Eternal Woman http://rutracker.org/forum/viewtopic.php?t=3963834
CDDA Raf 1996 Collezione Temporanea http://rutracker.org/forum/viewtopic.php?t=3971782
CDDA Robert Stanton - Acoustic Storm - 1997 http://rutracker.org/forum/viewtopic.php?t=3973967
CDDA Susanna Borsch - Off-Limits - 2006 http://rutracker.org/forum/viewtopic.php?t=3973958
CDDA VA - 1991 Les Plus Grandes Chansons http://rutracker.org/forum/viewtopic.php?t=3968241
CDDA VA - 54* Sanremo - Festival della Canzone Italiana - 2004 http://rutracker.org/forum/viewtopic.php?t=3977214
CDDA VA - Ciao Italia (2CD) 2001 http://rutracker.org/forum/viewtopic.php?t=3967837
CDDA VA - Greatest hits of the 80's (8CD Box) - 1998 http://rutracker.org/forum/viewtopic.php?t=3977281
CDDA VA - Love Ring Best 2000 http://rutracker.org/forum/viewtopic.php?t=3967694
CDDA VA - More Greatest hits of the 80's (8CD Box) - 2000 http://rutracker.org/forum/viewtopic.php?t=3975264
CDDA VA - Sanremo 2002 (2 CD) http://rutracker.org/forum/viewtopic.php?t=3964272
CDDA VA - Sanremo 2006 (2 CD) http://rutracker.org/forum/viewtopic.php?t=3964199
CDDA VA - Sanremo 2012 http://rutracker.org/forum/viewtopic.php?t=3966923
CDDA VA - Super Sanremo 2012 I Grandi Successi del Festival http://rutracker.org/forum/viewtopic.php?t=3966899
CDDA VA 1993 I Protagonisti Vol 1 http://rutracker.org/forum/viewtopic.php?t=3968502
CDDA VA 1993 I Protagonisti Vol 2 http://rutracker.org/forum/viewtopic.php?t=3971195
CDDA VA 2010 Rock Mantique Top 100 Vol.3 [5 CD BOX] http://rutracker.org/forum/viewtopic.php?t=3971805
CDDA Vincent Persichetti - Complete Piano Sonatas - 2008 http://rutracker.org/forum/viewtopic.php?t=3973816
Any questions -> support@pro-jazz.com. По всем вопросам пишите -> support@pro-jazz.com
22:40
165
Нет комментариев. Ваш будет первым!