Поиск

(Avant-Garde, Surf Music, Exotica, Latin Jazz, Tzadik) John Zorn/The Dreamers - Ipos: Book of Angels, Vol. 14 - 2010, FLAC (tracks+.cue), lossless

Треклист:
John Zorn/The Dreamers - Ipos: Book of Angels, Vol. 14
Жанр: Avant-Garde, Surf Music, Exotica, Latin Jazz, Tzadik
Год выпуска диска: 2010
Производитель диска: Tzadik Records
Каталог: TZ7380
Серия: Tzadik: Archival Series
Аудио кодек: FLAC
Тип рипа: tracks+.cue
Битрейт аудио: lossless
Продолжительность: 54:25
Треклист:
1. Tirtael
2. Hashul
3. Galizur
4. Oriel
5. Zavebe
6. Qalbam
7. Hagai
8. Zortek
9. Ezriel
10. Kutiel
Personnel:
Cyro Baptista: Percussion
Joey Baron: Drums
Trevor Dunn: Bass
Marc Ribot: Guitar
Jamie Saft: Keyboards
Kenny Wollesen: Vibraphone
 
EAC extraction logfile:
Exact Audio Copy V0.99 prebeta 5 from 4. May 2009
EAC extraction logfile from 20. July 2010, 6:14
The Dreamers / Ipos: The Book Of Angels Vol 14
Used drive : PLEXTOR BD-R PX-B920SA Adapter: 1 ID: 0
Read mode : Secure
Utilize accurate stream : Yes
Defeat audio cache : Yes
Make use of C2 pointers : No
Read offset correction : 667
Overread into Lead-In and Lead-Out : No
Fill up missing offset samples with silence : Yes
Delete leading and trailing silent blocks : No
Null samples used in CRC calculations : Yes
Used interface : Installed external ASPI interface
Gap handling : Appended to previous track
Used output format : User Defined Encoder
Selected bitrate : 1024 kBit/s
Quality : High
Add ID3 tag : No
Command line compressor : C:\Program Files\Exact Audio Copy\FLAC\FLAC.EXE
Additional command line options : -8 -V -T "ARTIST=%a" -T "TITLE=%t" -T "ALBUM=%g" -T "DATE=%y" -T "TRACKNUMBER=%n" -T "GENRE=%m" -T "COMMENT=EAC FLAC -8" %s
TOC of the extracted CD
Track | Start | Length | Start sector | End sector
---------------------------------------------------------
1 | 0:00.00 | 3:55.07 | 0 | 17631
2 | 3:55.07 | 3:51.24 | 17632 | 34980
3 | 7:46.31 | 7:33.53 | 34981 | 69008
4 | 15:20.09 | 5:28.52 | 69009 | 93660
5 | 20:48.61 | 4:40.22 | 93661 | 114682
6 | 25:29.08 | 8:02.02 | 114683 | 150834
7 | 33:31.10 | 4:15.29 | 150835 | 169988
8 | 37:46.39 | 5:35.63 | 169989 | 195176
9 | 43:22.27 | 7:26.34 | 195177 | 228660
10 | 50:48.61 | 3:36.05 | 228661 | 244865
Track 1
Filename C:\Tzadik\The Dreamers\01. Tirtael.wav
Pre-gap length 0:00:02.00
Peak level 96.6 %
Track quality 99.9 %
Test CRC A6CC912E
Copy CRC A6CC912E
Track not present in AccurateRip database
Copy OK
Track 2
Filename C:\Tzadik\The Dreamers\02. Hashul.wav
Peak level 96.6 %
Track quality 100.0 %
Test CRC 36D7E4B9
Copy CRC 36D7E4B9
Track not present in AccurateRip database
Copy OK
Track 3
Filename C:\Tzadik\The Dreamers\03. Galizur.wav
Peak level 96.6 %
Track quality 100.0 %
Test CRC D1BF7672
Copy CRC D1BF7672
Track not present in AccurateRip database
Copy OK
Track 4
Filename C:\Tzadik\The Dreamers\04. Oriel.wav
Peak level 96.6 %
Track quality 100.0 %
Test CRC 783C47FE
Copy CRC 783C47FE
Track not present in AccurateRip database
Copy OK
Track 5
Filename C:\Tzadik\The Dreamers\05. Zavebe.wav
Peak level 96.6 %
Track quality 100.0 %
Test CRC C343E0E0
Copy CRC C343E0E0
Track not present in AccurateRip database
Copy OK
Track 6
Filename C:\Tzadik\The Dreamers\06. Qalbam.wav
Peak level 96.6 %
Track quality 100.0 %
Test CRC A2C6A665
Copy CRC A2C6A665
Track not present in AccurateRip database
Copy OK
Track 7
Filename C:\Tzadik\The Dreamers\07. Hagai.wav
Peak level 96.6 %
Track quality 99.9 %
Test CRC 0C85E790
Copy CRC 0C85E790
Track not present in AccurateRip database
Copy OK
Track 8
Filename C:\Tzadik\The Dreamers\08. Zortek.wav
Peak level 96.6 %
Track quality 100.0 %
Test CRC B8954519
Copy CRC B8954519
Track not present in AccurateRip database
Copy OK
Track 9
Filename C:\Tzadik\The Dreamers\09. Ezriel.wav
Peak level 96.6 %
Track quality 100.0 %
Test CRC C3C1542E
Copy CRC C3C1542E
Track not present in AccurateRip database
Copy OK
Track 10
Filename C:\Tzadik\The Dreamers\10. Kutiel.wav
Peak level 96.6 %
Track quality 100.0 %
Test CRC CE32E7B9
Copy CRC CE32E7B9
Track not present in AccurateRip database
Copy OK
None of the tracks are present in the AccurateRip database
No errors occurred
End of status report
 
CUE
REM GENRE Avantgarde
REM DATE 2010
REM DISCID 6B0CC00A
REM COMMENT "ExactAudioCopy v0.99pb5"
PERFORMER "The Dreamers"
TITLE "Ipos: The Book Of Angels Vol 14"
FILE "01. Tirtael.wav" WAVE
TRACK 01 AUDIO
TITLE "Tirtael"
PERFORMER "The Dreamers"
INDEX 01 00:00:00
FILE "02. Hashul.wav" WAVE
TRACK 02 AUDIO
TITLE "Hashul"
PERFORMER "The Dreamers"
INDEX 01 00:00:00
FILE "03. Galizur.wav" WAVE
TRACK 03 AUDIO
TITLE "Galizur"
PERFORMER "The Dreamers"
INDEX 01 00:00:00
FILE "04. Oriel.wav" WAVE
TRACK 04 AUDIO
TITLE "Oriel"
PERFORMER "The Dreamers"
INDEX 01 00:00:00
FILE "05. Zavebe.wav" WAVE
TRACK 05 AUDIO
TITLE "Zavebe"
PERFORMER "The Dreamers"
INDEX 01 00:00:00
FILE "06. Qalbam.wav" WAVE
TRACK 06 AUDIO
TITLE "Qalbam"
PERFORMER "The Dreamers"
INDEX 01 00:00:00
FILE "07. Hagai.wav" WAVE
TRACK 07 AUDIO
TITLE "Hagai"
PERFORMER "The Dreamers"
INDEX 01 00:00:00
FILE "08. Zortek.wav" WAVE
TRACK 08 AUDIO
TITLE "Zortek"
PERFORMER "The Dreamers"
INDEX 01 00:00:00
FILE "09. Ezriel.wav" WAVE
TRACK 09 AUDIO
TITLE "Ezriel"
PERFORMER "The Dreamers"
INDEX 01 00:00:00
FILE "10. Kutiel.wav" WAVE
TRACK 10 AUDIO
TITLE "Kutiel"
PERFORMER "The Dreamers"
INDEX 01 00:00:00
 
Tzadik info:
The dynamic sextet featured in two of Zorn's most recent and popular musical projects-The Dreamers and O'o-jump another level in Ipos, their most beautiful and powerful recording to date. Featuring ten new compositions from the lyrical Book of Angels, the music draws exotica, surf, world music, latin jazz, rock, film music and more into a seductive new musical world. Perfect for the early morning, late at night, at home or in the car, The Dreamers play Masada is truly a magical combination. Powerful new music performed by an all-star band of downtown masters.
downloaded from what.cd thanks a lot to TzaraPuzza
16:17
260
Нет комментариев. Ваш будет первым!