Вы используете незарегистрированную версию компонента "Вкладки"!

Поиск

(Avant-Garde / Structured Improvisation / 482 Music) Grey Ghost (Aram Shelton / Johnathan Crawford) - How To Create Words - 2003, FLAC (image+.cue), lossless

(Avant-Garde / Structured Improvisation / 482 Music) Grey Ghost (Aram Shelton / Johnathan Crawford) - How To Create Words - 2003, FLAC (image+.cue), lossless
Треклист:
Grey Ghost (Aram Shelton / Johnathan Crawford) - How To Create Words

Жанр: Avant-Garde / Structured Improvisation / 482 Music
Год выпуска диска: 2003
Производитель диска: 482 Music 1022; USA
Аудио кодек: FLAC
Тип рипа: image+.cue
Битрейт аудио: lossless
Продолжительность: 55:48
Aram Shelton: saxophone, computer, clarinet, trumpet
Johnathan Crawford: synthesizer, percussion, melodica
1. Spitzacolli
2. Splendor
3. Horns and Organ
4. Hand Down
5. When You Say Go, Leave
6. Command Control
7. Unheard, Other Bands Practice
8. Spool
9. Keep On
Recorded January 26 and August 3-4, 2003 at Acme Studios and 2002, in Chicago.
 
EAC Report
Exact Audio Copy V0.99 prebeta 5 from 4. May 2009
EAC extraction logfile from 21. February 2010, 20:28
Grey Ghost / How To Create Words
Used drive : hp DVD-RAM GH40L Adapter: 0 ID: 1
Read mode : Secure
Utilize accurate stream : Yes
Defeat audio cache : Yes
Make use of C2 pointers : No
Read offset correction : 667
Overread into Lead-In and Lead-Out : No
Fill up missing offset samples with silence : Yes
Delete leading and trailing silent blocks : No
Null samples used in CRC calculations : Yes
Used interface : Installed external ASPI interface
Used output format : User Defined Encoder
Selected bitrate : 1024 kBit/s
Quality : High
Add ID3 tag : No
Command line compressor : C:\Program Files\Exact Audio Copy\Flac\flac.exe
Additional command line options : -6 -V -T "ARTIST=%a" -T "TITLE=%t" -T "ALBUM=%g" -T "DATE=%y" -T "TRACKNUMBER=%n" -T "GENRE=%m" -T "COMMENT=EAC FLAC -6" %s
TOC of the extracted CD
Track | Start | Length | Start sector | End sector
---------------------------------------------------------
1 | 0:00.00 | 6:53.18 | 0 | 30992
2 | 6:53.18 | 2:44.34 | 30993 | 43326
3 | 9:37.52 | 5:46.08 | 43327 | 69284
4 | 15:23.60 | 4:39.07 | 69285 | 90216
5 | 20:02.67 | 7:15.45 | 90217 | 122886
6 | 27:18.37 | 7:23.07 | 122887 | 156118
7 | 34:41.44 | 7:19.34 | 156119 | 189077
8 | 42:01.03 | 9:16.00 | 189078 | 230777
9 | 51:17.03 | 4:30.50 | 230778 | 251077
Range status and errors
Selected range
Filename C:\Users\Igor\Music\eac\Grey Ghost - How To Create Words.wav
Peak level 99.1 %
Range quality 100.0 %
Test CRC 8D543D6E
Copy CRC 8D543D6E
Copy OK
No errors occurred
AccurateRip summary
Track 1 not present in database
Track 2 not present in database
Track 3 not present in database
Track 4 not present in database
Track 5 not present in database
Track 6 not present in database
Track 7 not present in database
Track 8 not present in database
Track 9 not present in database
None of the tracks are present in the AccurateRip database
End of status report

рип собственный
Any questions -> support@pro-jazz.com. По всем вопросам пишите -> support@pro-jazz.com
22:09
125
Нет комментариев. Ваш будет первым!