Вы используете незарегистрированную версию компонента "Вкладки"!

Поиск

(Avant-Garde, Soundtrack) John Lurie - African Swim and Manny & Lo - 1998, FLAC (tracks+.cue), lossless

(Avant-Garde, Soundtrack) John Lurie - African Swim and Manny & Lo - 1998, FLAC (tracks+.cue), lossless
Треклист:
John Lurie / African Swim and Manny & Lo
Жанр: Avant-Garde, Soundtrack
Страна-производитель диска: U.S.A.
Год издания: 1998
Издатель (лейбл): Strange & Beautiful Music
Номер по каталогу: SBM CD 0017
Аудиокодек: FLAC (*.flac)
Тип рипа: tracks+.cue
Битрейт аудио: lossless
Продолжительность: 41:18
Источник (релизер): Max Monteiro
Наличие сканов в содержимом раздачи: да
Треклист:
1. Main Titles 3:15
2. Al Al Al Al 3:11
3. Big Trouble 3:11
4. Men Working 1:07
5. Teddy Bears Nik Bop 1:13
6. Sex with Al 1:02
7. Gun Dance 1:06
8. Tomato Fight 1:10
9. Al Is Hated 0:57
10. Vibe Whoops 1:25
11. Goodbye to Peach 2:57
12. African Swim (End Titles) 1:47
13. Manny & Lo (Main Titles) 1:59
14. Tiffany’s Bedroom 0:41
15. Driving Into Country 1:40
16. Manny with Lunchbox 0:26
17. She’s Not a Nurse 0:52
18. Manny Leaves Lo 0:49
19. Monster Trucks 0:33
20. Lo Crawls Through Window 0:58
21. Wild Bill 0:40
22. Dream Elaine Driving 0:42
23. Kidnapping Elaine 2:35
24. Hypnotize the Lizard 0:55
25. Manny & Lo (End Titles) 6:08
All music written by John Lurie.
 
Лог создания рипа
Exact Audio Copy V1.0 beta 3 from 29. August 2011
EAC extraction logfile from 2. March 2013, 10:20
John Lurie / African Swim and Manny & Lo
Used drive : SlimtypeeNAU508 5 Adapter: 1 ID: 0
Read mode : Secure
Utilize accurate stream : Yes
Defeat audio cache : Yes
Make use of C2 pointers : No
Read offset correction : 6
Overread into Lead-In and Lead-Out : No
Fill up missing offset samples with silence : Yes
Delete leading and trailing silent blocks : No
Null samples used in CRC calculations : Yes
Used interface : Native Win32 interface for Win NT & 2000
Gap handling : Appended to previous track
Used output format : User Defined Encoder
Selected bitrate : 768 kBit/s
Quality : High
Add ID3 tag : No
Command line compressor : C:\Program Files (x86)\Exact Audio Copy\Flac\flac.exe
Additional command line options : -8 -V -T "ARTIST=%artist%" -T "TITLE=%title%" -T "ALBUM=%albumtitle%" -T "DATE=%year%" -T "TRACKNUMBER=%tracknr%" -T "GENRE=%genre%" -T "PERFORMER=%albuminterpret%" -T "COMPOSER=%composer%" %haslyrics%--tag-from-file=LYRICS="%lyricsfile%"%haslyrics% -T "ALBUMARTIST=%albumartist%" -T "DISCNUMBER=%cdnumber%" -T "TOTALDISCS=%totalcds%" -T "TOTALTRACKS=%numtracks%" -T "COMMENT=%comment%" %source% -o %dest%
TOC of the extracted CD
Track | Start | Length | Start sector | End sector
---------------------------------------------------------
1 | 0:00.00 | 3:14.60 | 0 | 14609
2 | 3:14.60 | 3:11.17 | 14610 | 28951
3 | 6:26.02 | 3:11.33 | 28952 | 43309
4 | 9:37.35 | 1:07.17 | 43310 | 48351
5 | 10:44.52 | 1:13.18 | 48352 | 53844
6 | 11:57.70 | 1:01.47 | 53845 | 58466
7 | 12:59.42 | 1:05.43 | 58467 | 63384
8 | 14:05.10 | 1:10.22 | 63385 | 68656
9 | 15:15.32 | 0:57.00 | 68657 | 72931
10 | 16:12.32 | 1:24.43 | 72932 | 79274
11 | 17:37.00 | 2:56.40 | 79275 | 92514
12 | 20:33.40 | 1:47.05 | 92515 | 100544
13 | 22:20.45 | 1:59.12 | 100545 | 109481
14 | 24:19.57 | 0:40.53 | 109482 | 112534
15 | 25:00.35 | 1:39.62 | 112535 | 120021
16 | 26:40.22 | 0:26.20 | 120022 | 121991
17 | 27:06.42 | 0:52.00 | 121992 | 125891
18 | 27:58.42 | 0:48.43 | 125892 | 129534
19 | 28:47.10 | 0:32.67 | 129535 | 132001
20 | 29:20.02 | 0:58.25 | 132002 | 136376
21 | 30:18.27 | 0:40.33 | 136377 | 139409
22 | 30:58.60 | 0:41.45 | 139410 | 142529
23 | 31:40.30 | 2:35.10 | 142530 | 154164
24 | 34:15.40 | 0:54.60 | 154165 | 158274
25 | 35:10.25 | 6:07.50 | 158275 | 185849
Track 1
Filename C:\EAC rips\01 - Main Titles.wav
Pre-gap length 0:00:02.00
Peak level 61.2 %
Extraction speed 1.0 X
Track quality 100.0 %
Test CRC 30DEC343
Copy CRC 30DEC343
Accurately ripped (confidence 5) [9AF952E1] (AR v2)
Copy OK
Track 2
Filename C:\EAC rips\02 - Al Al Al Al.wav
Peak level 62.4 %
Extraction speed 0.9 X
Track quality 99.9 %
Test CRC D72BBD69
Copy CRC D72BBD69
Accurately ripped (confidence 5) [CF7C0F48] (AR v2)
Copy OK
Track 3
Filename C:\EAC rips\03 - Big Trouble.wav
Peak level 93.0 %
Extraction speed 1.2 X
Track quality 100.0 %
Test CRC 977B365F
Copy CRC 977B365F
Accurately ripped (confidence 5) [4006C31E] (AR v2)
Copy OK
Track 4
Filename C:\EAC rips\04 - Men Working.wav
Pre-gap length 0:00:01.40
Peak level 62.0 %
Extraction speed 0.9 X
Track quality 100.0 %
Test CRC 9081FD0F
Copy CRC 9081FD0F
Accurately ripped (confidence 5) [0EAAD6AA] (AR v2)
Copy OK
Track 5
Filename C:\EAC rips\05 - Teddy Bears Nik Pop.wav
Pre-gap length 0:00:01.25
Peak level 13.8 %
Extraction speed 1.0 X
Track quality 100.0 %
Test CRC 1BA6E479
Copy CRC 1BA6E479
Accurately ripped (confidence 5) [767A225A] (AR v2)
Copy OK
Track 6
Filename C:\EAC rips\06 - Sex with Al.wav
Peak level 64.7 %
Extraction speed 0.9 X
Track quality 100.0 %
Test CRC 6A46D3F4
Copy CRC 6A46D3F4
Accurately ripped (confidence 5) [3577BB23] (AR v2)
Copy OK
Track 7
Filename C:\EAC rips\07 - Gun Dance.wav
Peak level 53.3 %
Extraction speed 1.0 X
Track quality 100.0 %
Test CRC C9A7BD91
Copy CRC C9A7BD91
Accurately ripped (confidence 5) [2A20547A] (AR v2)
Copy OK
Track 8
Filename C:\EAC rips\08 - Tomato Fight.wav
Peak level 63.1 %
Extraction speed 1.0 X
Track quality 100.0 %
Test CRC ED8E7A17
Copy CRC ED8E7A17
Accurately ripped (confidence 5) [54E4D5D4] (AR v2)
Copy OK
Track 9
Filename C:\EAC rips\09 - Al Is Hated.wav
Pre-gap length 0:00:02.57
Peak level 36.0 %
Extraction speed 1.0 X
Track quality 100.0 %
Test CRC 0E9C859F
Copy CRC 0E9C859F
Accurately ripped (confidence 5) [280CDDA6] (AR v2)
Copy OK
Track 10
Filename C:\EAC rips\10 - Vibe Whoops.wav
Pre-gap length 0:00:02.32
Peak level 45.6 %
Extraction speed 1.1 X
Track quality 100.0 %
Test CRC BD5CE205
Copy CRC BD5CE205
Accurately ripped (confidence 4) [304BAEAC] (AR v2)
Copy OK
Track 11
Filename C:\EAC rips\11 - Goodbye to Peach.wav
Peak level 37.9 %
Extraction speed 1.4 X
Track quality 100.0 %
Test CRC A6FB5C97
Copy CRC A6FB5C97
Accurately ripped (confidence 5) [B009017E] (AR v2)
Copy OK
Track 12
Filename C:\EAC rips\12 - African Swim (End Titles).wav
Peak level 59.8 %
Extraction speed 1.3 X
Track quality 100.0 %
Test CRC 40C60BEB
Copy CRC 40C60BEB
Accurately ripped (confidence 5) [6D455515] (AR v2)
Copy OK
Track 13
Filename C:\EAC rips\13 - Manny & Lo (Main Titles).wav
Pre-gap length 0:00:02.40
Peak level 68.7 %
Extraction speed 1.1 X
Track quality 99.9 %
Test CRC 7DBF31CC
Copy CRC 7DBF31CC
Accurately ripped (confidence 5) [CCEED58B] (AR v2)
Copy OK
Track 14
Filename C:\EAC rips\14 - Tiffany's Bedroom.wav
Peak level 37.6 %
Extraction speed 0.9 X
Track quality 100.0 %
Test CRC A891674A
Copy CRC A891674A
Accurately ripped (confidence 5) [274D93E3] (AR v2)
Copy OK
Track 15
Filename C:\EAC rips\15 - Driving Into Country.wav
Peak level 65.2 %
Extraction speed 1.4 X
Track quality 100.0 %
Test CRC 30500069
Copy CRC 30500069
Accurately ripped (confidence 5) [1B54E09D] (AR v2)
Copy OK
Track 16
Filename C:\EAC rips\16 - Manny with Lunchbox.wav
Pre-gap length 0:00:01.00
Peak level 43.5 %
Extraction speed 0.7 X
Track quality 100.0 %
Test CRC 61D71720
Copy CRC 61D71720
Accurately ripped (confidence 5) [EF2DD4A2] (AR v2)
Copy OK
Track 17
Filename C:\EAC rips\17 - She's Not a Nurse.wav
Peak level 68.9 %
Extraction speed 1.1 X
Track quality 100.0 %
Test CRC D893364F
Copy CRC D893364F
Accurately ripped (confidence 5) [D3B5EF19] (AR v2)
Copy OK
Track 18
Filename C:\EAC rips\18 - Manny Leaves Lo.wav
Pre-gap length 0:00:01.12
Peak level 29.3 %
Extraction speed 1.1 X
Track quality 100.0 %
Test CRC 484AB9AD
Copy CRC 484AB9AD
Accurately ripped (confidence 5) [2D7AADC8] (AR v2)
Copy OK
Track 19
Filename C:\EAC rips\19 - Monster Trucks.wav
Peak level 52.7 %
Extraction speed 0.6 X
Track quality 99.6 %
Test CRC D4A07DC7
Copy CRC D4A07DC7
Accurately ripped (confidence 5) [ADDCDB7B] (AR v2)
Copy OK
Track 20
Filename C:\EAC rips\20 - Lo Crawls Through Window.wav
Peak level 37.4 %
Extraction speed 1.2 X
Track quality 100.0 %
Test CRC F103D27D
Copy CRC F103D27D
Accurately ripped (confidence 5) [C9A8A447] (AR v2)
Copy OK
Track 21
Filename C:\EAC rips\21 - Wild Bill.wav
Peak level 43.5 %
Extraction speed 1.0 X
Track quality 100.0 %
Test CRC AB95775B
Copy CRC AB95775B
Accurately ripped (confidence 4) [2D5FE4AB] (AR v2)
Copy OK
Track 22
Filename C:\EAC rips\22 - Dream Elaine Driving.wav
Peak level 34.4 %
Extraction speed 1.0 X
Track quality 100.0 %
Test CRC 0F6F2DCA
Copy CRC 0F6F2DCA
Accurately ripped (confidence 4) [AFC44B0F] (AR v2)
Copy OK
Track 23
Filename C:\EAC rips\23 - Kidnapping Elaine.wav
Peak level 65.6 %
Extraction speed 1.6 X
Track quality 100.0 %
Test CRC 78745E56
Copy CRC 78745E56
Accurately ripped (confidence 5) [C27F08A5] (AR v2)
Copy OK
Track 24
Filename C:\EAC rips\24 - Hypnotize the Lizard.wav
Pre-gap length 0:00:01.06
Peak level 40.7 %
Extraction speed 1.2 X
Track quality 100.0 %
Test CRC DF984350
Copy CRC DF984350
Accurately ripped (confidence 4) [28783AE4] (AR v2)
Copy OK
Track 25
Filename C:\EAC rips\25 - Manny & Lo (End titles).wav
Peak level 75.0 %
Extraction speed 1.9 X
Track quality 100.0 %
Test CRC 2DA92923
Copy CRC 2DA92923
Accurately ripped (confidence 4) [67449C4C] (AR v2)
Copy OK
All tracks accurately ripped
No errors occurred
End of status report
---- CUETools DB Plugin V2.1.4
[CTDB TOCID: dvtZ9Vw2Q_HhgB0nYTJ2YFvGtwk-] found
Submit result: already submitted
Track | CTDB Status
1 | (3/4) Accurately ripped, or (1/4) differs in 18810 samples @01:12:45-01:12:61
2 | (4/4) Accurately ripped
3 | (3/4) Accurately ripped, or (1/4) differs in 18810 samples @02:25:36-02:25:52
4 | (4/4) Accurately ripped
5 | (4/4) Accurately ripped
6 | (4/4) Accurately ripped
7 | (4/4) Accurately ripped
8 | (4/4) Accurately ripped
9 | (4/4) Accurately ripped
10 | (4/4) Accurately ripped
11 | (4/4) Accurately ripped
12 | (4/4) Accurately ripped
13 | (4/4) Accurately ripped
14 | (4/4) Accurately ripped
15 | (4/4) Accurately ripped
16 | (4/4) Accurately ripped
17 | (4/4) Accurately ripped
18 | (4/4) Accurately ripped
19 | (4/4) Accurately ripped
20 | (4/4) Accurately ripped
21 | (4/4) Accurately ripped
22 | (4/4) Accurately ripped
23 | (4/4) Accurately ripped
24 | (4/4) Accurately ripped
25 | (4/4) Accurately ripped
==== Log checksum 015B830DF9A13376BD09EC8FB8B2A5D9515FFBA7F572F31DC4F21EF0F4D80025 ====
 
Содержание индексной карты (.CUE)
REM GENRE Soundtrack
REM DATE 1998
REM DISCID 6209AE19
REM COMMENT "ExactAudioCopy v1.0b3"
PERFORMER "John Lurie"
TITLE "African Swim and Manny & Lo"
FILE "01 - Main Titles.wav" WAVE
TRACK 01 AUDIO
TITLE "Main Titles"
PERFORMER "John Lurie"
INDEX 01 00:00:00
FILE "02 - Al Al Al Al.wav" WAVE
TRACK 02 AUDIO
TITLE "Al Al Al Al"
PERFORMER "John Lurie"
INDEX 01 00:00:00
FILE "03 - Big Trouble.wav" WAVE
TRACK 03 AUDIO
TITLE "Big Trouble"
PERFORMER "John Lurie"
INDEX 01 00:00:00
TRACK 04 AUDIO
TITLE "Men Working"
PERFORMER "John Lurie"
INDEX 00 03:09:68
FILE "04 - Men Working.wav" WAVE
INDEX 01 00:00:00
TRACK 05 AUDIO
TITLE "Teddy Bears Nik Pop"
PERFORMER "John Lurie"
INDEX 00 01:05:67
FILE "05 - Teddy Bears Nik Pop.wav" WAVE
INDEX 01 00:00:00
FILE "06 - Sex with Al.wav" WAVE
TRACK 06 AUDIO
TITLE "Sex with Al"
PERFORMER "John Lurie"
INDEX 01 00:00:00
FILE "07 - Gun Dance.wav" WAVE
TRACK 07 AUDIO
TITLE "Gun Dance"
PERFORMER "John Lurie"
INDEX 01 00:00:00
FILE "08 - Tomato Fight.wav" WAVE
TRACK 08 AUDIO
TITLE "Tomato Fight"
PERFORMER "John Lurie"
INDEX 01 00:00:00
TRACK 09 AUDIO
TITLE "Al Is Hated"
PERFORMER "John Lurie"
INDEX 00 01:07:40
FILE "09 - Al Is Hated.wav" WAVE
INDEX 01 00:00:00
TRACK 10 AUDIO
TITLE "Vibe Whoops"
PERFORMER "John Lurie"
INDEX 00 00:54:43
FILE "10 - Vibe Whoops.wav" WAVE
INDEX 01 00:00:00
FILE "11 - Goodbye to Peach.wav" WAVE
TRACK 11 AUDIO
TITLE "Goodbye to Peach"
PERFORMER "John Lurie"
INDEX 01 00:00:00
FILE "12 - African Swim (End Titles).wav" WAVE
TRACK 12 AUDIO
TITLE "African Swim (End Titles)"
PERFORMER "John Lurie"
INDEX 01 00:00:00
TRACK 13 AUDIO
TITLE "Manny & Lo (Main Titles)"
PERFORMER "John Lurie"
INDEX 00 01:44:40
FILE "13 - Manny & Lo (Main Titles).wav" WAVE
INDEX 01 00:00:00
FILE "14 - Tiffany's Bedroom.wav" WAVE
TRACK 14 AUDIO
TITLE "Tiffany's Bedroom"
PERFORMER "John Lurie"
INDEX 01 00:00:00
FILE "15 - Driving Into Country.wav" WAVE
TRACK 15 AUDIO
TITLE "Driving Into Country"
PERFORMER "John Lurie"
INDEX 01 00:00:00
TRACK 16 AUDIO
TITLE "Manny with Lunchbox"
PERFORMER "John Lurie"
INDEX 00 01:38:62
FILE "16 - Manny with Lunchbox.wav" WAVE
INDEX 01 00:00:00
FILE "17 - She's Not a Nurse.wav" WAVE
TRACK 17 AUDIO
TITLE "She's Not a Nurse"
PERFORMER "John Lurie"
INDEX 01 00:00:00
TRACK 18 AUDIO
TITLE "Manny Leaves Lo"
PERFORMER "John Lurie"
INDEX 00 00:50:63
FILE "18 - Manny Leaves Lo.wav" WAVE
INDEX 01 00:00:00
FILE "19 - Monster Trucks.wav" WAVE
TRACK 19 AUDIO
TITLE "Monster Trucks"
PERFORMER "John Lurie"
INDEX 01 00:00:00
FILE "20 - Lo Crawls Through Window.wav" WAVE
TRACK 20 AUDIO
TITLE "Lo Crawls Through Window"
PERFORMER "John Lurie"
INDEX 01 00:00:00
FILE "21 - Wild Bill.wav" WAVE
TRACK 21 AUDIO
TITLE "Wild Bill"
PERFORMER "John Lurie"
INDEX 01 00:00:00
FILE "22 - Dream Elaine Driving.wav" WAVE
TRACK 22 AUDIO
TITLE "Dream Elaine Driving"
PERFORMER "John Lurie"
INDEX 01 00:00:00
FILE "23 - Kidnapping Elaine.wav" WAVE
TRACK 23 AUDIO
TITLE "Kidnapping Elaine"
PERFORMER "John Lurie"
INDEX 01 00:00:00
TRACK 24 AUDIO
TITLE "Hypnotize the Lizard"
PERFORMER "John Lurie"
INDEX 00 02:34:04
FILE "24 - Hypnotize the Lizard.wav" WAVE
INDEX 01 00:00:00
FILE "25 - Manny & Lo (End titles).wav" WAVE
TRACK 25 AUDIO
TITLE "Manny & Lo (End titles)"
PERFORMER "John Lurie"
INDEX 01 00:00:00
Доп. информация: Two film scores by John Lurie.
« African Swim » recorded and mixed at Clinton Recording & Avatar Studios.
« Manny & Lo » recorded and mixed at Big House Recording.
 
Состав
1. Main Titles
John Lurie – Banjo, Harmonica, Sampling Keyboard
Doug Wieselman – 1st Clarinet
Michael Blake – 2nd Clarinet
Janet Grice – Bassoon
Marc Ribot – Guitar
Mary L. Rowell – Violin
Laura Seaton – Violin
Ron Lawrence – Violin
Mary Wooten – Cello
Tony Garnier – Bass
Mauro Refosco – Percussion
Calvin Weston – Drums
2. Al Al Al Al
Steven Bernstein – Trumpet
Marc Ribot – Guitar
Brian Mitchell – Keyboards
Tony Garnier – Bass
Calvin Weston – Drums
Mary L. Rowell – Violin
Laura Seaton – Violin
Ron Lawrence – Viola
Mary Wooten – Cello
John Lurie – Vocals (« Al »)
Steve Bernstein – Vocals (« Al »)
Calvin Weston – Vocals (« Al »)
Mauro Refosco – Vocals (« Ow »)
3. Big Trouble
John Lurie – Lead Vocals
Marc Ribot – Guitar
Mauro Refosco – Percussion
Calvin Weston – Drums
Brian Mitchell – Keyboards
Calvin Weston – Backing Vocals (« Oh No »)
Melanie Rock – Backing Vocals
4. Men Working
Michael Blake –1st Clarinet
Doug Wieselman – 2nd Clarinet
Steve Bernstein – Trumpet
Tony Garnier – Bass
Calvin Weston – Drums
5. Teddy Bears Nik Bop
Marc Ribot – Guitar
Janet Grice – Bassoon
Michael Blake – Clarinet
Doug Wieselman – Clarinet
Mary L. Rowell – Violin
Laura Seaton – Violin
Ron Lawrence – Viola
Mary Wooten – Cello
6. Sex with Al
Doug Wieselman – Clarinet
Steve Bernstein – GTrumpet
Tony Garnier – Bass
Mauro Refosco – Percussion
Calvin Weston – Drums
John Lurie – Sampling Keyboard
7. Gun Dance
Doug Wieselman – Clarinet
Marc Ribot – Banjo
Mauro Refosco – Percussion
Calvin Weston – Drums
8. Tomato Fight
John Lurie – Vocals, Harmonica
Mauro Refosco – Percussion
Calvin Weston – Drums
9. Al Is Hated 0:57
Ron Lawrence – Viola
Doug Wieselman – Clarinet
Brian Mitchell – Keyboards
Mauro Refosco – Percussion
Calvin Weston – Drums
10. Vibe Whoops
Doug Wieselman – Clrinet
Brian Mitchell – Clarinet
John Lurie – Vocal-Whoops
Tony Garnier – Bass
Mauro Refosco – Percussion
Calvin Weston – Pots and Pans
11. Goodbye to Peach
John Lurie – Soprano Saxophone
Marc Ribot – Guitar
Mauro Refosco – Talking Drum
Calvin Weston – Drums
12. African Swim (End Titles)
John Lurie – Guitar
Marc Ribot – Guitar
Mary L. Rowell – Violin
Laura Seaton – Violin
Ron Lawrence – Viola
Mary Wooten – Cello
Tony Garnier – Bass
Mauro Refosco – Percussion
Calvin Weston – Drums
13. Manny & Lo (Main Titles)
Marc Ribot – Guitar
John Lurie – Guitar
Bill Ware – Marimba
Chris Wood – Bass
Billy Martin – Percussion
14. Tiffany’s Bedroom
Bill Ware – Marimba
John Medeski – Casio Keyboard
Billy Martin – Percussion
15. Driving Into Country
John Medeski – Casio Keyboard
Bill Ware – Marimba
Matt Zimbelmann – Guitar
Chris Wood – Bass
Billy Martin – Drums
16. Manny with Lunchbox
Bill Ware – Marimba
17. She’s Not a Nurse
John Lurie – Vocals
Marc Ribot – Guitar
Chris Wood – Bass
Billy Martin – Drums
18. Manny Leaves Lo
John Lurie – Lead Guitar
Matt Zimbelmann – Guitar
19. Monster Trucks
John Lurie – Lead Guitar
Matt Zimbelmann – Guitar
Chris Wood – Bass
Billy Martin – Percussion
20. Lo Crawls Through Window
Marc Ribot – Guitar
John Lurie – Guitar
Matt Zimbelmann – Acoustic Guitar
Bill Ware – Vibes
21. Wild Bill
Bill Ware – Marimba
22. Dream Elaine Driving
Marc Ribot – Guitar
John Lurie – Guitar
Chris Wood – Bass
Billy Martin – Percussion
23. Kidnapping Elaine
Marc Ribot – Guitar
Chris Wood – Bass
Billy Martin – Percussion
24. Hypnotize the Lizard
John Medeski – Casio Keaboard
Bill Ware – Vibes
John Lurie – Soprano Saxophone
Chris Wood – Bass
25. Manny & Lo (End Titles)
Marc Ribot – Guitar
John Lurie – Guitar
Matt Zimbelmann – Guitar
Bill Ware – Marimba
Chris Wood – Bass
Billy Martin – Percussion
John Lurie – Vocals
John Medeski – Vocals
Bill Ware – Vocals
Matt Zimbelmann – Vocals
Any questions -> support@pro-jazz.com. По всем вопросам пишите -> support@pro-jazz.com
09:44
182
Нет комментариев. Ваш будет первым!