Вы используете незарегистрированную версию компонента "Вкладки"!

Поиск

(Avant-Garde, Sound Aspects) Kxutrio - Riff-Ifi - 1990, FLAC (tracks+.cue), lossless

(Avant-Garde, Sound Aspects) Kxutrio - Riff-Ifi - 1990, FLAC (tracks+.cue), lossless
Треклист:
Kxutrio / Riff-Ifi
Жанр: Avant-Garde, Sound Aspects
Страна-производитель диска: Germany
Год издания: 1990
Издатель (лейбл): Sound Aspects
Номер по каталогу: SAS CD 032
Аудиокодек: FLAC (*.flac)
Тип рипа: tracks+.cue
Битрейт аудио: lossless
Продолжительность: 57:30
Источник (релизер): Max Monteiro
Наличие сканов в содержимом раздачи: да
Треклист:
1. Kxunette (Harald Kimmig) 4:18
2. Riff-Ifi (Harald Kimmig) 13:07
3. Tune Two (Cecil Taylor) 6:05
4. Jimmy Jymp Jump (H. Lukas Lindenmaier) 6:49
5. The Break Broken (H. Lukas Lindenmaier) 3:46
6. J’s T’s (H. Lukas Lindenmaier) 3:57
7. New York / Chicago / Abstract Theme (Leroy Jenkins) 11:18
8. Louise / Little Lees (Cecil Taylor) 5:12
9. Kxubo (H. Lukas Lindenmaier) 2:58
Recorded May 18, 1988 at HGBS Studios, Villingen.
Harald Kimmig – Violin
Uwe Martin – Bass
H. Lukas Lindenmaier – Percussion
 
Лог создания рипа
Exact Audio Copy V1.0 beta 3 from 29. August 2011
EAC extraction logfile from 9. September 2013, 14:03
Kxutrio / Riff-Ifi
Used drive : SlimtypeeNAU508 5 Adapter: 1 ID: 0
Read mode : Secure
Utilize accurate stream : Yes
Defeat audio cache : Yes
Make use of C2 pointers : No
Read offset correction : 6
Overread into Lead-In and Lead-Out : No
Fill up missing offset samples with silence : Yes
Delete leading and trailing silent blocks : No
Null samples used in CRC calculations : Yes
Used interface : Native Win32 interface for Win NT & 2000
Gap handling : Appended to previous track
Used output format : User Defined Encoder
Selected bitrate : 768 kBit/s
Quality : High
Add ID3 tag : No
Command line compressor : C:\Program Files (x86)\Exact Audio Copy\Flac\flac.exe
Additional command line options : -8 -V -T "ARTIST=%artist%" -T "TITLE=%title%" -T "ALBUM=%albumtitle%" -T "DATE=%year%" -T "TRACKNUMBER=%tracknr%" -T "GENRE=%genre%" -T "PERFORMER=%albuminterpret%" -T "COMPOSER=%composer%" %haslyrics%--tag-from-file=LYRICS="%lyricsfile%"%haslyrics% -T "ALBUMARTIST=%albumartist%" -T "DISCNUMBER=%cdnumber%" -T "TOTALDISCS=%totalcds%" -T "TOTALTRACKS=%numtracks%" -T "COMMENT=%comment%" %source% -o %dest%
TOC of the extracted CD
Track | Start | Length | Start sector | End sector
---------------------------------------------------------
1 | 0:00.32 | 4:18.00 | 32 | 19381
2 | 4:18.32 | 13:06.50 | 19382 | 78381
3 | 17:25.07 | 6:04.50 | 78382 | 105731
4 | 23:29.57 | 6:49.00 | 105732 | 136406
5 | 30:18.57 | 3:46.25 | 136407 | 153381
6 | 34:05.07 | 3:57.25 | 153382 | 171181
7 | 38:02.32 | 11:18.00 | 171182 | 222031
8 | 49:20.32 | 5:12.00 | 222032 | 245431
9 | 54:32.32 | 2:58.00 | 245432 | 258781
Track 1
Filename C:\EAC rips\01 - Kxunette.wav
Pre-gap length 0:00:02.32
Peak level 100.0 %
Extraction speed 1.1 X
Track quality 100.0 %
Test CRC 205DA599
Copy CRC 205DA599
Track not present in AccurateRip database
Copy OK
Track 2
Filename C:\EAC rips\02 - Riff-Ifi.wav
Pre-gap length 0:00:03.60
Peak level 89.3 %
Extraction speed 1.4 X
Track quality 100.0 %
Test CRC A437C62E
Copy CRC A437C62E
Track not present in AccurateRip database
Copy OK
Track 3
Filename C:\EAC rips\03 - Tune Two.wav
Pre-gap length 0:00:02.50
Peak level 100.0 %
Extraction speed 1.6 X
Track quality 100.0 %
Test CRC E95CBF93
Copy CRC E95CBF93
Track not present in AccurateRip database
Copy OK
Track 4
Filename C:\EAC rips\04 - Jimmy Jymp Jump.wav
Pre-gap length 0:00:03.42
Peak level 100.0 %
Extraction speed 1.6 X
Track quality 99.9 %
Test CRC FB7AC716
Copy CRC FB7AC716
Track not present in AccurateRip database
Copy OK
Track 5
Filename C:\EAC rips\05 - The Break Broken.wav
Pre-gap length 0:00:03.37
Peak level 97.5 %
Extraction speed 1.7 X
Track quality 100.0 %
Test CRC ADE384FF
Copy CRC ADE384FF
Track not present in AccurateRip database
Copy OK
Track 6
Filename C:\EAC rips\06 - J´s T´s.wav
Pre-gap length 0:00:03.52
Peak level 49.6 %
Extraction speed 1.8 X
Track quality 100.0 %
Test CRC D9A85E56
Copy CRC D9A85E56
Track not present in AccurateRip database
Copy OK
Track 7
Filename C:\EAC rips\07 - New York - Chicago - Abstract Theme.wav
Pre-gap length 0:00:03.62
Peak level 83.3 %
Extraction speed 2.1 X
Track quality 100.0 %
Test CRC C31BFBC7
Copy CRC C31BFBC7
Track not present in AccurateRip database
Copy OK
Track 8
Filename C:\EAC rips\08 - Louise - Little Lees.wav
Pre-gap length 0:00:03.20
Peak level 76.5 %
Extraction speed 2.1 X
Track quality 100.0 %
Test CRC 663BC33D
Copy CRC 663BC33D
Track not present in AccurateRip database
Copy OK
Track 9
Filename C:\EAC rips\09 - Kxubo.wav
Pre-gap length 0:00:03.57
Peak level 100.0 %
Extraction speed 2.0 X
Track quality 100.0 %
Test CRC 23DBBE12
Copy CRC 23DBBE12
Track not present in AccurateRip database
Copy OK
None of the tracks are present in the AccurateRip database
No errors occurred
End of status report
---- CUETools DB Plugin V2.1.4
[CTDB TOCID: hI821Aso7vRNQJTcM4s9XzYwBW4-] disk not present in database
Submit result: hI821Aso7vRNQJTcM4s9XzYwBW4- has been uploaded
==== Log checksum 97B2FC439D2474D68379C1B159710A83EEFFE721EA1A2DE5C529B98E1F9B9533 ====
 
Содержание индексной карты (.CUE)
REM GENRE Jazz
REM DATE 1990
REM DISCID 680D7A09
REM COMMENT "ExactAudioCopy v1.0b3"
PERFORMER "Kxutrio"
TITLE "Riff-Ifi"
FILE "01 - Kxunette.wav" WAVE
TRACK 01 AUDIO
TITLE "Kxunette"
PERFORMER "Kxutrio"
PREGAP 00:00:32
INDEX 01 00:00:00
TRACK 02 AUDIO
TITLE "Riff-Ifi"
PERFORMER "Kxutrio"
INDEX 00 04:14:15
FILE "02 - Riff-Ifi.wav" WAVE
INDEX 01 00:00:00
TRACK 03 AUDIO
TITLE "Tune Two"
PERFORMER "Kxutrio"
INDEX 00 13:04:00
FILE "03 - Tune Two.wav" WAVE
INDEX 01 00:00:00
TRACK 04 AUDIO
TITLE "Jimmy Jymp Jump"
PERFORMER "Kxutrio"
INDEX 00 06:01:08
FILE "04 - Jimmy Jymp Jump.wav" WAVE
INDEX 01 00:00:00
TRACK 05 AUDIO
TITLE "The Break Broken"
PERFORMER "Kxutrio"
INDEX 00 06:45:38
FILE "05 - The Break Broken.wav" WAVE
INDEX 01 00:00:00
TRACK 06 AUDIO
TITLE "J´s T´s"
PERFORMER "Kxutrio"
INDEX 00 03:42:48
FILE "06 - J´s T´s.wav" WAVE
INDEX 01 00:00:00
TRACK 07 AUDIO
TITLE "New York / Chicago / Abstract Theme"
PERFORMER "Kxutrio"
INDEX 00 03:53:38
FILE "07 - New York - Chicago - Abstract Theme.wav" WAVE
INDEX 01 00:00:00
TRACK 08 AUDIO
TITLE "Louise / Little Lees"
PERFORMER "Kxutrio"
INDEX 00 11:14:55
FILE "08 - Louise - Little Lees.wav" WAVE
INDEX 01 00:00:00
TRACK 09 AUDIO
TITLE "Kxubo"
PERFORMER "Kxutrio"
INDEX 00 05:08:18
FILE "09 - Kxubo.wav" WAVE
INDEX 01 00:00:00
По всем вопросам пишите личное сообщение пользователю M0p94ok.
18:13
183
Нет комментариев. Ваш будет первым!