Вы используете незарегистрированную версию компонента "Вкладки"!

Поиск

(avant-garde) Satoko Fujii Ma-Do - Time Stands Still 2013, FLAC (tracks+.cue), lossless

(avant-garde) Satoko Fujii Ma-Do - Time Stands Still 2013, FLAC (tracks+.cue), lossless
Треклист:


Satoko Fujii Ma-Do - Time Stands Still 2013

Жанр: avant-garde
Год выпуска:
Издатель (лейбл):NotTwo / MW 897-2
Формат: FLAC (tracks+.cue)
Битрейт аудио: lossless
Продолжительность 52`25
Источник: what.cd
Norikatsu Koreyasu - Bass;
Akira Horikoshi - Drums;
Satoko Fujii - Piano;
Natsuki Tamura - Trumpet.

tracks

1 Fortitude 09:30
2 North Wind And The Sun 10:32
3 Time Flies 06:58
4 Rolling Around 02:55
5 Set The Clock Back 05:21
6 Broken Time 09:41
7 Time Stands Still 07:31


 
.log
X Lossless Decoder version 20130127 (142.3)
XLD extraction logfile from 2013-03-29 23:58:05 +0300
Satoko Fujii Ma-Do / Time Stands Still
Used drive : MATSHITA CD-RW CW-8221 (revision GA0K)
Media type : Pressed CD
Ripper mode : XLD Secure Ripper
Disable audio cache : OK for the drive with a cache less than 1375KiB
Make use of C2 pointers : NO
Read offset correction : 102
Max retry count : 20
Gap status : Analyzed, Appended (except HTOA)
TOC of the extracted CD
Track | Start | Length | Start sector | End sector
---------------------------------------------------------
1 | 00:00:00 | 09:30:35 | 0 | 42784
2 | 09:30:35 | 10:29:70 | 42785 | 90029
3 | 20:00:30 | 06:58:54 | 90030 | 121433
4 | 26:59:09 | 02:54:62 | 121434 | 134545
5 | 29:53:71 | 05:21:66 | 134546 | 158686
6 | 35:15:62 | 09:38:50 | 158687 | 202086
7 | 44:54:37 | 07:30:68 | 202087 | 235904
AccurateRip Summary
Disc not found in AccurateRip DB.
All Tracks
Album gain : -4.67 dB
Peak : 0.966156
Statistics
Read error : 0
Jitter error (maybe fixed) : 0
Retry sector count : 0
Damaged sector count : 0
Track 01
Filename : /My/Music/_FLAC/Satoko Fujii Ma-Do - 2013 - Time Stands Still [FLAC]/01 - Fortitude.flac
/My/Music/_FLAC/Satoko Fujii Ma-Do - 2013 - Time Stands Still [MP3 320]/01 - Fortitude.mp3
/My/Music/_FLAC/Satoko Fujii Ma-Do - 2013 - Time Stands Still [MP3 V0]/01 - Fortitude.mp3
Pre-gap length : 00:02:00
Track gain : -4.24 dB
Peak : 0.966156
CRC32 hash (test run) : 24FA9D19
CRC32 hash : 24FA9D19
CRC32 hash (skip zero) : 01165E4A
AccurateRip v1 signature : D3F8A9DE
AccurateRip v2 signature : 2316B11A
->Track not present in AccurateRip database.
Statistics
Read error : 0
Jitter error (maybe fixed) : 0
Retry sector count : 0
Damaged sector count : 0
Track 02
Filename : /My/Music/_FLAC/Satoko Fujii Ma-Do - 2013 - Time Stands Still [FLAC]/02 - North Wind and the Sun.flac
/My/Music/_FLAC/Satoko Fujii Ma-Do - 2013 - Time Stands Still [MP3 320]/02 - North Wind and the Sun.mp3
/My/Music/_FLAC/Satoko Fujii Ma-Do - 2013 - Time Stands Still [MP3 V0]/02 - North Wind and the Sun.mp3
Pre-gap length : 00:02:11
Track gain : -3.02 dB
Peak : 0.966156
CRC32 hash (test run) : 9AD59482
CRC32 hash : 9AD59482
CRC32 hash (skip zero) : 0D758C73
AccurateRip v1 signature : 74C0AB61
AccurateRip v2 signature : 1EACEA78
->Track not present in AccurateRip database.
Statistics
Read error : 0
Jitter error (maybe fixed) : 0
Retry sector count : 0
Damaged sector count : 0
Track 03
Filename : /My/Music/_FLAC/Satoko Fujii Ma-Do - 2013 - Time Stands Still [FLAC]/03 - Time Flies.flac
/My/Music/_FLAC/Satoko Fujii Ma-Do - 2013 - Time Stands Still [MP3 320]/03 - Time Flies.mp3
/My/Music/_FLAC/Satoko Fujii Ma-Do - 2013 - Time Stands Still [MP3 V0]/03 - Time Flies.mp3
Track gain : -3.42 dB
Peak : 0.966156
CRC32 hash (test run) : B3594617
CRC32 hash : B3594617
CRC32 hash (skip zero) : BF8E422B
AccurateRip v1 signature : 6371AB57
AccurateRip v2 signature : 0EE871FA
->Track not present in AccurateRip database.
Statistics
Read error : 0
Jitter error (maybe fixed) : 0
Retry sector count : 0
Damaged sector count : 0
Track 04
Filename : /My/Music/_FLAC/Satoko Fujii Ma-Do - 2013 - Time Stands Still [FLAC]/04 - Rolling Around.flac
/My/Music/_FLAC/Satoko Fujii Ma-Do - 2013 - Time Stands Still [MP3 320]/04 - Rolling Around.mp3
/My/Music/_FLAC/Satoko Fujii Ma-Do - 2013 - Time Stands Still [MP3 V0]/04 - Rolling Around.mp3
Pre-gap length : 00:01:08
Track gain : 0.91 dB
Peak : 0.966125
CRC32 hash (test run) : 51E45420
CRC32 hash : 51E45420
CRC32 hash (skip zero) : 0AA1E2CA
AccurateRip v1 signature : E50D33C6
AccurateRip v2 signature : CE277A43
->Track not present in AccurateRip database.
Statistics
Read error : 0
Jitter error (maybe fixed) : 0
Retry sector count : 0
Damaged sector count : 0
Track 05
Filename : /My/Music/_FLAC/Satoko Fujii Ma-Do - 2013 - Time Stands Still [FLAC]/05 - Set the Clock Back.flac
/My/Music/_FLAC/Satoko Fujii Ma-Do - 2013 - Time Stands Still [MP3 320]/05 - Set the Clock Back.mp3
/My/Music/_FLAC/Satoko Fujii Ma-Do - 2013 - Time Stands Still [MP3 V0]/05 - Set the Clock Back.mp3
Pre-gap length : 00:01:29
Track gain : -1.88 dB
Peak : 0.966125
CRC32 hash (test run) : 88937EB4
CRC32 hash : 88937EB4
CRC32 hash (skip zero) : D19BB594
AccurateRip v1 signature : 0ADA7F4B
AccurateRip v2 signature : 52D34651
->Track not present in AccurateRip database.
Statistics
Read error : 0
Jitter error (maybe fixed) : 0
Retry sector count : 0
Damaged sector count : 0
Track 06
Filename : /My/Music/_FLAC/Satoko Fujii Ma-Do - 2013 - Time Stands Still [FLAC]/06 - Broken Time.flac
/My/Music/_FLAC/Satoko Fujii Ma-Do - 2013 - Time Stands Still [MP3 320]/06 - Broken Time.mp3
/My/Music/_FLAC/Satoko Fujii Ma-Do - 2013 - Time Stands Still [MP3 V0]/06 - Broken Time.mp3
Pre-gap length : 00:02:26
Track gain : -7.18 dB
Peak : 0.966156
CRC32 hash (test run) : 28828186
CRC32 hash : 28828186
CRC32 hash (skip zero) : 78B3D5BB
AccurateRip v1 signature : 3AC0EA9E
AccurateRip v2 signature : 02BE19BA
->Track not present in AccurateRip database.
Statistics
Read error : 0
Jitter error (maybe fixed) : 0
Retry sector count : 0
Damaged sector count : 0
Track 07
Filename : /My/Music/_FLAC/Satoko Fujii Ma-Do - 2013 - Time Stands Still [FLAC]/07 - Time Stands Still.flac
/My/Music/_FLAC/Satoko Fujii Ma-Do - 2013 - Time Stands Still [MP3 320]/07 - Time Stands Still.mp3
/My/Music/_FLAC/Satoko Fujii Ma-Do - 2013 - Time Stands Still [MP3 V0]/07 - Time Stands Still.mp3
Track gain : -1.17 dB
Peak : 0.966125
CRC32 hash (test run) : 255941C6
CRC32 hash : 255941C6
CRC32 hash (skip zero) : 847BB626
AccurateRip v1 signature : FE05E04C
AccurateRip v2 signature : 6C1074AF
->Track not present in AccurateRip database.
Statistics
Read error : 0
Jitter error (maybe fixed) : 0
Retry sector count : 0
Damaged sector count : 0
No errors occurred
End of status report
 
.cue
TITLE "Time Stands Still"
PERFORMER "Satoko Fujii Ma-Do"
REM GENRE "Avant-Garde"
REM DATE "2013"
REM DISCID 570C4907
REM REPLAYGAIN_ALBUM_GAIN -4.67 dB
REM REPLAYGAIN_ALBUM_PEAK 0.966156
FILE "01 - Fortitude.flac" WAVE
TRACK 01 AUDIO
TITLE "Fortitude"
PERFORMER "Satoko Fujii Ma-Do"
REM REPLAYGAIN_TRACK_GAIN -4.24 dB
REM REPLAYGAIN_TRACK_PEAK 0.966156
INDEX 01 00:00:00
TRACK 02 AUDIO
TITLE "North Wind and the Sun"
PERFORMER "Satoko Fujii Ma-Do"
REM REPLAYGAIN_TRACK_GAIN -3.02 dB
REM REPLAYGAIN_TRACK_PEAK 0.966156
INDEX 00 09:28:24
FILE "02 - North Wind and the Sun.flac" WAVE
INDEX 01 00:00:00
FILE "03 - Time Flies.flac" WAVE
TRACK 03 AUDIO
TITLE "Time Flies"
PERFORMER "Satoko Fujii Ma-Do"
REM REPLAYGAIN_TRACK_GAIN -3.42 dB
REM REPLAYGAIN_TRACK_PEAK 0.966156
INDEX 01 00:00:00
TRACK 04 AUDIO
TITLE "Rolling Around"
PERFORMER "Satoko Fujii Ma-Do"
REM REPLAYGAIN_TRACK_GAIN 0.91 dB
REM REPLAYGAIN_TRACK_PEAK 0.966125
INDEX 00 06:57:46
FILE "04 - Rolling Around.flac" WAVE
INDEX 01 00:00:00
TRACK 05 AUDIO
TITLE "Set the Clock Back"
PERFORMER "Satoko Fujii Ma-Do"
REM REPLAYGAIN_TRACK_GAIN -1.88 dB
REM REPLAYGAIN_TRACK_PEAK 0.966125
INDEX 00 02:53:33
FILE "05 - Set the Clock Back.flac" WAVE
INDEX 01 00:00:00
TRACK 06 AUDIO
TITLE "Broken Time"
PERFORMER "Satoko Fujii Ma-Do"
REM REPLAYGAIN_TRACK_GAIN -7.18 dB
REM REPLAYGAIN_TRACK_PEAK 0.966156
INDEX 00 05:19:40
FILE "06 - Broken Time.flac" WAVE
INDEX 01 00:00:00
FILE "07 - Time Stands Still.flac" WAVE
TRACK 07 AUDIO
TITLE "Time Stands Still"
PERFORMER "Satoko Fujii Ma-Do"
REM REPLAYGAIN_TRACK_GAIN -1.17 dB
REM REPLAYGAIN_TRACK_PEAK 0.966125
INDEX 01 00:00:00

другие релизы
Any questions -> support@pro-jazz.com. По всем вопросам пишите -> support@pro-jazz.com
11:27
177
Нет комментариев. Ваш будет первым!