Вы используете незарегистрированную версию компонента "Вкладки"!

Поиск

(avant-garde) Rob Brown, Matthew Shipp - Blink of an Eye - 1996, FLAC (tracks+.cue) lossless

(avant-garde) Rob Brown, Matthew Shipp - Blink of an Eye - 1996, FLAC (tracks+.cue) lossless
Треклист:


Rob Brown, Matthew Shipp - Blink of an Eye 1996
Жанр: avant-garde
Год издания диска: 1996
Аудио кодек: FLAC (*.flac)
Тип рипа: tracks+.cue
Битрейт аудио: lossless
Продолжительность: 1`09
Источник (релизер): what.cd
Наличие сканов в содержимом раздачи: нет
Треклист:
1. Blink Of An Eye Part 1 (28:44)
2. Blink Of An Eye Part 2 (32:27)
3. Blink Of An Eye Part 3 (8:44)
Rob Brown: alto saxophone, flute
Matthew Shipp: piano

Recorded live on October 12, 1996 at Roulette.
 
Лог создания рипа
X Lossless Decoder version 20091108 (112.0)
XLD extraction logfile from 2009-12-23 07:22:00 -0500
Rob Brown Duo With Matthew Shipp / Blink Of An Eye
Used drive : MATSHITA DVD-R UJ-868 (revision KA14)
Use cdparanoia mode : YES (CDParanoia III 9.8 engine)
Disable audio cache : OK for the drive with cache less than 370KB
Make use of C2 pointers : NO
Read offset correction : 102
Max retry count : 100
TOC of the extracted CD
Track | Start | Length | Start sector | End sector
---------------------------------------------------------
1 | 00:00:00 | 28:44:35 | 0 | 129334
2 | 28:44:35 | 32:27:55 | 129335 | 275414
3 | 61:12:15 | 08:44:08 | 275415 | 314722
List of alternate offset correction values
# | Absolute | Relative | Confidence
------------------------------------------
1 | -559 | -661 | 1
Track 01
Filename : /Users/toydesign/Desktop/whatcd/Matthew Shipp/Rob Brown Duo w_ Matthew Shipp/01 Rob Brown Duo With Matthew Shipp - Blink Of An Eye Part 1.flac
CRC32 hash : 9A8AC65A
CRC32 hash (skip zero) : 9BC300D0
AccurateRip signature : 3758E53E
->Accurately ripped! (confidence 1)
(matched with the different offset correction value;
calculated using an additional offset of -661;
the signature after correction is: 0747AB07)
Statistics
Read error : 0
Skipped (treated as error) : 0
Edge jitter error (maybe fixed) : 0
Atom jitter error (maybe fixed) : 0
Drift error (maybe fixed) : 0
Dropped bytes error (maybe fixed) : 0
Duplicated bytes error (maybe fixed) : 0
Track 02
Filename : /Users/toydesign/Desktop/whatcd/Matthew Shipp/Rob Brown Duo w_ Matthew Shipp/02 Rob Brown Duo With Matthew Shipp - Blink Of An Eye Part 2.flac
CRC32 hash : 2B5D6A55
CRC32 hash (skip zero) : 73151D38
AccurateRip signature : F0437D3B
->Accurately ripped! (confidence 1)
(matched with the different offset correction value;
calculated using an additional offset of -661;
the signature after correction is: EF8548AA)
Statistics
Read error : 0
Skipped (treated as error) : 0
Edge jitter error (maybe fixed) : 0
Atom jitter error (maybe fixed) : 0
Drift error (maybe fixed) : 0
Dropped bytes error (maybe fixed) : 0
Duplicated bytes error (maybe fixed) : 0
Track 03
Filename : /Users/toydesign/Desktop/whatcd/Matthew Shipp/Rob Brown Duo w_ Matthew Shipp/03 Rob Brown Duo With Matthew Shipp - Blink Of An Eye Part 3.flac
CRC32 hash : 6B638E45
CRC32 hash (skip zero) : 68AC4FDA
AccurateRip signature : E9EC0653
->Accurately ripped! (confidence 1)
(matched with the different offset correction value;
calculated using an additional offset of -661;
the signature after correction is: 1CA03092)
Statistics
Read error : 0
Skipped (treated as error) : 0
Edge jitter error (maybe fixed) : 0
Atom jitter error (maybe fixed) : 0
Drift error (maybe fixed) : 0
Dropped bytes error (maybe fixed) : 0
Duplicated bytes error (maybe fixed) : 0
No errors occurred
End of status report
 
Содержание индексной карты (.CUE)
REM GENRE Avant - jazz
REM DATE 1996
CATALOG 3
PERFORMER "Rob Brown, Matthew Shipp"
TITLE "Blink Of An Eye"
FILE "01 Blink Of An Eye Part 1.flac" WAVE
TRACK 01 AUDIO
TITLE "Blink Of An Eye Part 1"
INDEX 01 00:00:00
FILE "02 Blink Of An Eye Part 2.flac" WAVE
TRACK 02 AUDIO
TITLE "Blink Of An Eye Part 2"
INDEX 01 00:00:00
FILE "03 Blink Of An Eye Part 3.flac" WAVE
TRACK 03 AUDIO
TITLE "Blink Of An Eye Part 3"
INDEX 01 00:00:00
другие релизы
Any questions -> support@pro-jazz.com. По всем вопросам пишите -> support@pro-jazz.com
06:13
191
Нет комментариев. Ваш будет первым!