Вы используете незарегистрированную версию компонента "Вкладки"!

Поиск

(Avant-Garde, Promo) John Zorn - The John Zorn Radio Hour - 1990, FLAC (tracks+.cue), lossless

(Avant-Garde, Promo) John Zorn - The John Zorn Radio Hour - 1990, FLAC (tracks+.cue), lossless
Треклист:
John Zorn - The John Zorn Radio Hour
Жанр: Avant-Garde, Promo
Год выпуска диска: 1990
Производитель диска: US
Аудио кодек: FLAC
Тип рипа: tracks+.cue
Битрейт аудио: lossless
Продолжительность: 73:38
Трэклист:
1 John Zorn John Zorn Radio Hour, Part I (27:33)
2 John Zorn John Zorn Radio Hour, Part II (33:03)
3 Naked City The James Bond Theme (3:02)
4 Naked City Graveyard Shift (3:25)
5 Naked City Gotham (Formerly Batman) (1:58)
6 Naked City Latin Quarter (4:05)
Promotional release, described on the cover as "a specially produced one-hour radio program" featuring Zorn "Spinning his favorite discs, revealing his influences, and discussing Naked City." Also includes four banded tracks from Naked City.
Доп. информация:
 
EAC log
EAC extraction logfile from 16. April 2009, 1:26 for CD
John Zorn / The John Zorn Radio Hour
Used drive : TOSHIBA DVD-ROM SD-M1612 Adapter: 1 ID: 0
Read mode : Secure with NO C2, accurate stream, disable cache
Read offset correction : -472
Overread into Lead-In and Lead-Out : No
Used output format : C:\Program Files\Exact Audio Copy\flac.exe (User Defined Encoder)
224 kBit/s
Additional command line options : -8 -V -T "artist=%a" -T "title=%t" -T "album=%g" -T "date=%y" -T "tracknumber=%n" -T "genre=%m" %s
Other options :
Fill up missing offset samples with silence : Yes
Delete leading and trailing silent blocks : No
Installed external ASPI interface
Track 1
Filename H:\BT-UP\John Zorn - The John Zorn Radio Hour\01 - John Zorn Radio Hour, Part I.wav
Pre-gap length 0:00:02.32
Peak level 97.7 %
Track quality 99.9 %
Test CRC E92ECEC9
Copy CRC E92ECEC9
Copy OK
Track 2
Filename H:\BT-UP\John Zorn - The John Zorn Radio Hour\02 - John Zorn Radio Hour, Part II.wav
Pre-gap length 0:00:02.50
Peak level 97.7 %
Track quality 100.0 %
Test CRC 3E4E9DA1
Copy CRC 3E4E9DA1
Copy OK
Track 3
Filename H:\BT-UP\John Zorn - The John Zorn Radio Hour\03 - James Bond Theme.wav
Pre-gap length 0:00:02.01
Peak level 96.6 %
Track quality 100.0 %
Test CRC D2E03C58
Copy CRC D2E03C58
Copy OK
Track 4
Filename H:\BT-UP\John Zorn - The John Zorn Radio Hour\04 - Graveyard Shift.wav
Pre-gap length 0:00:01.73
Peak level 99.7 %
Track quality 100.0 %
Test CRC 99CB0EDB
Copy CRC 99CB0EDB
Copy OK
Track 5
Filename H:\BT-UP\John Zorn - The John Zorn Radio Hour\05 - Gotham (formerly Batman).wav
Pre-gap length 0:00:01.71
Peak level 100.0 %
Track quality 100.0 %
Test CRC 14D00F4D
Copy CRC 14D00F4D
Copy OK
Track 6
Filename H:\BT-UP\John Zorn - The John Zorn Radio Hour\06 - Latin Quarter.wav
Pre-gap length 0:00:02.21
Peak level 100.0 %
Track quality 100.0 %
Test CRC 97364F4E
Copy CRC 97364F4E
Copy OK
No errors occured
End of status report
Any questions -> support@pro-jazz.com. По всем вопросам пишите -> support@pro-jazz.com
10:15
179
Нет комментариев. Ваш будет первым!