Вы используете незарегистрированную версию компонента "Вкладки"!

Поиск

(Avant-Garde, Post-Bop) Grachan Moncur III - Some Other Stuff {RVG Edition 2009} - 1965, FLAC (tracks+.cue), lossless

Треклист:
Grachan Moncur III - Some Other Stuff {RVG Edition 2009}
Жанр: Avant-Garde, Post-Bop
Дата записи альбома: 1965
Год выпуска диска: 2009
Производитель диска: Blue Note Records, RVG Edition, 50999 2 65152 2 9
Аудио кодек: FLAC
Тип рипа: tracks+.cue
Битрейт аудио: lossless
Продолжительность: 40:47
Источник: найдено в сети, релизер seeku.
Трэклист:
01. Gnostic (11:46)
02. Thandiwa (8:21)
03. The Twins (12:56)
04. Nomadic (7:44)
Состав:
Grachan Moncur III - Trombone
Wayne Shorter - Tenor Sax
Herbie Hancock - Piano
Cecil McBee - Bass
Tony Williams - Drums
Информация об альбоме: Grachan Moncur III был одним из ведущих авангардных тромбонистов 60-ых годов, хоть ему и нечасто предоставлялась возможность записывать собственные сессии. Этот сет 1964 года был одним из его лучших, в записи которого принимали участие басист Cecil McBee, двое участников квинтета Майлса Дэвиса (пианист Herbie Hancock и барабанщик Tony Williams) и тенор саксофонист Wayne Shorter, который, незадолго до этого присоединился к Майлсу. Группа исполняет четыре композиции Moncur-a, включаяя "Nomadic" (которая существенно удлинена благодаря барабанному соло) и "The Twins".
Аудио сэмплы на Allmsuic.com и Amazon.com.
Вся коллекция BLUE NOTE - RVG Edition на rutracker.org
 
CD
 
Отчёт ЕАС
Exact Audio Copy V0.99 prebeta 4 from 23. January 2008
EAC extraction logfile from 19. March 2009, 18:15
Grachan Moncur III / Some Other Stuff
Used drive : TSSTcorpDVD-ROM TS-H352C Adapter: 1 ID: 0
Read mode : Secure
Utilize accurate stream : Yes
Defeat audio cache : Yes
Make use of C2 pointers : No
Read offset correction : 6
Overread into Lead-In and Lead-Out : No
Fill up missing offset samples with silence : Yes
Delete leading and trailing silent blocks : No
Null samples used in CRC calculations : Yes
Used interface : Installed external ASPI interface
Gap handling : Appended to previous track
Used output format : Internal WAV Routines
Sample format : 44.100 Hz; 16 Bit; Stereo
TOC of the extracted CD
Track | Start | Length | Start sector | End sector
---------------------------------------------------------
1 | 0:00.00 | 11:46.35 | 0 | 52984
2 | 11:46.35 | 8:21.21 | 52985 | 90580
3 | 20:07.56 | 12:55.64 | 90581 | 148769
4 | 33:03.45 | 7:43.38 | 148770 | 183532
Track 1
Filename C:\Rip\CD\Grachan Moncur III - Some Other Stuff [2009 Reissue] [FLAC] [1965]\01-Gnostic.wav
Pre-gap length 0:00:02.00
Peak level 97.9 %
Track quality 100.0 %
Test CRC E5EE50B8
Copy CRC E5EE50B8
Track not present in AccurateRip database
Copy OK
Track 2
Filename C:\Rip\CD\Grachan Moncur III - Some Other Stuff [2009 Reissue] [FLAC] [1965]\02-Thandiwa.wav
Pre-gap length 0:00:04.36
Peak level 97.9 %
Track quality 100.0 %
Test CRC BAB494BB
Copy CRC BAB494BB
Track not present in AccurateRip database
Copy OK
Track 3
Filename C:\Rip\CD\Grachan Moncur III - Some Other Stuff [2009 Reissue] [FLAC] [1965]\03-The Twins.wav
Pre-gap length 0:00:03.42
Peak level 97.9 %
Track quality 100.0 %
Test CRC 5D72F53A
Copy CRC 5D72F53A
Track not present in AccurateRip database
Copy OK
Track 4
Filename C:\Rip\CD\Grachan Moncur III - Some Other Stuff [2009 Reissue] [FLAC] [1965]\04-Nomadic.wav
Pre-gap length 0:00:02.44
Peak level 97.9 %
Track quality 100.0 %
Test CRC B0DFF8F2
Copy CRC B0DFF8F2
Track not present in AccurateRip database
Copy OK
None of the tracks are present in the AccurateRip database
No errors occurred
End of status report
 
CUE
REM DATE 1965
REM DISCID 34098F04
REM COMMENT "ExactAudioCopy v0.99pb4"
CATALOG 5099926515229
PERFORMER "Grachan Moncur III"
TITLE "Some Other Stuff"
FILE "01-Gnostic.wav" WAVE
TRACK 01 AUDIO
TITLE "Gnostic"
PERFORMER "Grachan Moncur III"
ISRC USBN20800889
INDEX 01 00:00:00
TRACK 02 AUDIO
TITLE "Thandiwa"
PERFORMER "Grachan Moncur III"
ISRC USBN20800890
INDEX 00 11:42:08
FILE "02-Thandiwa.wav" WAVE
INDEX 01 00:00:00
TRACK 03 AUDIO
TITLE "The Twins"
PERFORMER "Grachan Moncur III"
ISRC USBN20800891
INDEX 00 08:17:64
FILE "03-The Twins.wav" WAVE
INDEX 01 00:00:00
TRACK 04 AUDIO
TITLE "Nomadic"
PERFORMER "Grachan Moncur III"
ISRC USBN20800892
INDEX 00 12:53:31
FILE "04-Nomadic.wav" WAVE
INDEX 01 00:00:00
 
auCDtect
1696266007 124620764 01-Gnostic.wav
1471632101 88425836 02-Thandiwa.wav
1532977914 136860572 03-The Twins.wav
1596155374 81762620 04-Nomadic.wav
auCDtect: CD records authenticity detector, version 0.8.2
Copyright (c) 2004 Oleg Berngardt. All rights reserved.
Copyright (c) 2004 Alexander Djourik. All rights reserved.
------------------------------------------------------------
Processing file: [01-Gnostic.wav]
------------------------------------------------------------
This track looks like CDDA with probability 100%
------------------------------------------------------------
Processing file: [02-Thandiwa.wav]
------------------------------------------------------------
This track looks like CDDA with probability 100%
------------------------------------------------------------
Processing file: [03-The Twins.wav]
------------------------------------------------------------
This track looks like CDDA with probability 100%
------------------------------------------------------------
Processing file: [04-Nomadic.wav]
------------------------------------------------------------
This track looks like CDDA with probability 100%
------------------------------------------------------------
Final Conclusion:
------------------------------------------------------------
These tracks looks like CDDA with probability 100%
Я всегда могу вернуться на раздачу, достаточно написать мне ЛС.
Any questions -> support@pro-jazz.com. По всем вопросам пишите -> support@pro-jazz.com
13:44
144
Нет комментариев. Ваш будет первым!