Поиск

(Avant-Garde, Post-Bop, Free Improvisation, Contemporary Jazz) [CD] Achim Kaufmann - Kyrill - 2008, FLAC (tracks+.cue), lossless

(Avant-Garde, Post-Bop, Free Improvisation, Contemporary Jazz) [CD] Achim Kaufmann - Kyrill - 2008, FLAC (tracks+.cue), lossless
Треклист:
Achim Kaufmann - Kyrill
Жанр: Avant-Garde, Post-Bop, Free Improvisation, Contemporary Jazz
Носитель: CD
Страна-производитель диска (релиза): Germany
Год издания: 2008
Издатель (лейбл): Pirouet Records
Номер по каталогу: PIT3034
Страна исполнителя (группы): Germany
Аудиокодек: FLAC (*.flac)
Тип рипа: tracks+.cue
Битрейт аудио: lossless
Продолжительность: 50:59
Источник (релизер): what.cd (hemminm )
Наличие сканов в содержимом раздачи: нет
Треклист:
01. Jinjanje (07:05)
02. Slow Roundabout (03:06)
03. Ensormasque (06:50)
04. Dewey Redman (06:24)
05. Misha Antlers (03:46)
06. Scarine (03:39)
07. Imbo (06:02)
08. Dorobo (04:14)
09. Blue-Brailled (05:48)
10. Stanley Park (04:05)
 
Лог создания рипа
Exact Audio Copy V1.0 beta 4 from 7. December 2014
EAC extraction logfile from 15. August 2015, 19:23
Achim Kaufmann / Kyrill
Used drive : hp DVDRAM GU90N Adapter: 1 ID: 0
Read mode : Secure
Utilize accurate stream : Yes
Defeat audio cache : Yes
Make use of C2 pointers : No
Read offset correction : 102
Overread into Lead-In and Lead-Out : No
Fill up missing offset samples with silence : Yes
Delete leading and trailing silent blocks : No
Null samples used in CRC calculations : Yes
Used interface : Native Win32 interface for Win NT & 2000
Gap handling : Appended to previous track
Used output format : User Defined Encoder
Selected bitrate : 1024 kBit/s
Quality : High
Add ID3 tag : No
Command line compressor : C:\Program Files (x86)\Exact Audio Copy\Flac\flac.exe
Additional command line options : -8 -V -T "ARTIST=%artist%" -T "TITLE=%title%" -T "ALBUM=%albumtitle%" -T "DATE=%year%" -T "TRACKNUMBER=%tracknr%" -T "GENRE=%genre%" -T "PERFORMER=%albuminterpret%" -T "COMPOSER=%composer%" %haslyrics%--tag-from-file=LYRICS="%lyricsfile%"%haslyrics% -T "ALBUMARTIST=%albumartist%" -T "DISCNUMBER=%cdnumber%" -T "TOTALDISCS=%totalcds%" -T "TOTALTRACKS=%numtracks%" -T "COMMENT=%comment%" %source% -o %dest%
TOC of the extracted CD
Track | Start | Length | Start sector | End sector
---------------------------------------------------------
1 | 0:00.00 | 7:05.34 | 0 | 31908
2 | 7:05.34 | 3:06.41 | 31909 | 45899
3 | 10:12.00 | 6:50.59 | 45900 | 76708
4 | 17:02.59 | 6:24.38 | 76709 | 105546
5 | 23:27.22 | 3:46.70 | 105547 | 122566
6 | 27:14.17 | 3:39.09 | 122567 | 139000
7 | 30:53.26 | 6:02.52 | 139001 | 166202
8 | 36:56.03 | 4:14.25 | 166203 | 185277
9 | 41:10.28 | 5:48.41 | 185278 | 211418
10 | 46:58.69 | 4:05.44 | 211419 | 229837
Track 1
Filename C:\Users\Mariko\Music\01 - Linjanje.wav
Pre-gap length 0:00:02.00
Peak level 97.7 %
Extraction speed 2.7 X
Track quality 100.0 %
Test CRC 291745A1
Copy CRC 291745A1
Accurately ripped (confidence 1) [653404E6] (AR v1)
Copy OK
Track 2
Filename C:\Users\Mariko\Music\02 - Slow Roundabout.wav
Pre-gap length 0:00:03.77
Peak level 59.8 %
Extraction speed 2.1 X
Track quality 99.9 %
Test CRC 13F4F126
Copy CRC 13F4F126
Accurately ripped (confidence 1) [739B2DDA] (AR v1)
Copy OK
Track 3
Filename C:\Users\Mariko\Music\03 - Ensormasque.wav
Pre-gap length 0:00:02.77
Peak level 99.4 %
Extraction speed 3.4 X
Track quality 100.0 %
Test CRC E56CAAC1
Copy CRC E56CAAC1
Accurately ripped (confidence 1) [A69AFC47] (AR v1)
Copy OK
Track 4
Filename C:\Users\Mariko\Music\04 - Dewey Redman.wav
Pre-gap length 0:00:03.98
Peak level 99.3 %
Extraction speed 3.7 X
Track quality 100.0 %
Test CRC 83A86F87
Copy CRC 83A86F87
Accurately ripped (confidence 1) [2237316A] (AR v1)
Copy OK
Track 5
Filename C:\Users\Mariko\Music\05 - Misha Antlers.wav
Pre-gap length 0:00:03.01
Peak level 99.2 %
Extraction speed 3.7 X
Track quality 100.0 %
Test CRC 67E067FF
Copy CRC 67E067FF
Accurately ripped (confidence 1) [D518CC12] (AR v1)
Copy OK
Track 6
Filename C:\Users\Mariko\Music\06 - Scarine.wav
Pre-gap length 0:00:04.57
Peak level 58.6 %
Extraction speed 3.0 X
Track quality 99.9 %
Test CRC 34721D6B
Copy CRC 34721D6B
Accurately ripped (confidence 1) [E658A902] (AR v1)
Copy OK
Track 7
Filename C:\Users\Mariko\Music\07 - Imbo.wav
Pre-gap length 0:00:02.92
Peak level 99.6 %
Extraction speed 4.3 X
Track quality 100.0 %
Test CRC FCA600F5
Copy CRC FCA600F5
Accurately ripped (confidence 1) [1C7C2879] (AR v1)
Copy OK
Track 8
Filename C:\Users\Mariko\Music\08 - Dorobo.wav
Pre-gap length 0:00:04.34
Peak level 93.9 %
Extraction speed 4.3 X
Track quality 100.0 %
Test CRC 76734C70
Copy CRC 76734C70
Accurately ripped (confidence 1) [E16B47D6] (AR v1)
Copy OK
Track 9
Filename C:\Users\Mariko\Music\09 - Blue-brailled.wav
Pre-gap length 0:00:03.09
Peak level 91.9 %
Extraction speed 4.6 X
Track quality 100.0 %
Test CRC C3272C56
Copy CRC C3272C56
Accurately ripped (confidence 1) [6EDB26A0] (AR v1)
Copy OK
Track 10
Filename C:\Users\Mariko\Music\10 - Stanley Park.wav
Pre-gap length 0:00:02.70
Peak level 86.4 %
Extraction speed 4.7 X
Track quality 100.0 %
Test CRC 757FCCD4
Copy CRC 757FCCD4
Accurately ripped (confidence 1) [659C7876] (AR v1)
Copy OK
All tracks accurately ripped
No errors occurred
End of status report
---- CUETools DB Plugin V2.1.4
[CTDB TOCID: nI0sYH5RY7EjakVXCJrV3AIj3W0-] disk not present in database
Submit result: nI0sYH5RY7EjakVXCJrV3AIj3W0- has been uploaded
==== Log checksum 9A38802771FDB2336D7BEF21107A4F36488D292F7A11ABC0B37F3C802C62DEE6 ====
 
Содержание индексной карты (.CUE)
REM GENRE Jazz
REM DATE 2008
REM DISCID 7A0BF80A
REM COMMENT "ExactAudioCopy v1.0b4"
CATALOG 4260041180345
PERFORMER "Achim Kaufmann"
TITLE "Kyrill"
FILE "01 - Linjanje.wav" WAVE
TRACK 01 AUDIO
TITLE "Linjanje"
PERFORMER "Achim Kaufmann"
ISRC DEEN40803401
INDEX 01 00:00:00
TRACK 02 AUDIO
TITLE "Slow Roundabout"
PERFORMER "Achim Kaufmann"
ISRC DEEN40803402
INDEX 00 07:01:51
FILE "02 - Slow Roundabout.wav" WAVE
INDEX 01 00:00:00
TRACK 03 AUDIO
TITLE "Ensormasque"
PERFORMER "Achim Kaufmann"
ISRC DEEN40803403
INDEX 00 03:03:58
FILE "03 - Ensormasque.wav" WAVE
INDEX 01 00:00:00
TRACK 04 AUDIO
TITLE "Dewey Redman"
PERFORMER "Achim Kaufmann"
ISRC DEEN40803404
INDEX 00 06:46:60
FILE "04 - Dewey Redman.wav" WAVE
INDEX 01 00:00:00
TRACK 05 AUDIO
TITLE "Misha Antlers"
PERFORMER "Achim Kaufmann"
ISRC DEEN40803405
INDEX 00 06:21:37
FILE "05 - Misha Antlers.wav" WAVE
INDEX 01 00:00:00
TRACK 06 AUDIO
TITLE "Scarine"
PERFORMER "Achim Kaufmann"
ISRC DEEN40803406
INDEX 00 03:42:27
FILE "06 - Scarine.wav" WAVE
INDEX 01 00:00:00
TRACK 07 AUDIO
TITLE "Imbo"
PERFORMER "Achim Kaufmann"
ISRC DEEN40803407
INDEX 00 03:36:15
FILE "07 - Imbo.wav" WAVE
INDEX 01 00:00:00
TRACK 08 AUDIO
TITLE "Dorobo"
PERFORMER "Achim Kaufmann"
ISRC DEEN40803408
INDEX 00 05:58:26
FILE "08 - Dorobo.wav" WAVE
INDEX 01 00:00:00
TRACK 09 AUDIO
TITLE "Blue-brailled"
PERFORMER "Achim Kaufmann"
ISRC DEEN40803409
INDEX 00 04:11:18
FILE "09 - Blue-brailled.wav" WAVE
INDEX 01 00:00:00
TRACK 10 AUDIO
TITLE "Stanley Park"
PERFORMER "Achim Kaufmann"
ISRC DEEN40803410
INDEX 00 05:45:63
FILE "10 - Stanley Park.wav" WAVE
INDEX 01 00:00:00
 
Лог проверки качества
AUDIOCHECKER v2.0 beta (build 457) - by Dester - opdester@freemail.hu
~~~~~~~~~~~~~~~~~~~~~~~~~~~~~~~~~~
-=== DO NOT EDIT THIS FILE! ===-
Path: ...\Achim Kaufmann - Kyrill (2007) [FLAC]
01 -=- 01 - Linjanje.flac -=- CDDA (100%)
02 -=- 02 - Slow Roundabout.flac -=- CDDA (100%)
03 -=- 03 - Ensormasque.flac -=- CDDA (100%)
04 -=- 04 - Dewey Redman.flac -=- CDDA (100%)
05 -=- 05 - Misha Antlers.flac -=- CDDA (100%)
06 -=- 06 - Scarine.flac -=- CDDA (100%)
07 -=- 07 - Imbo.flac -=- CDDA (100%)
08 -=- 08 - Dorobo.flac -=- CDDA (100%)
09 -=- 09 - Blue-brailled.flac -=- CDDA (100%)
10 -=- 10 - Stanley Park.flac -=- CDDA (100%)
Summary 100,00% CDDA
61420100
Доп. информация: Исправлены теги: год с 2007 на 2008
 
Состав
Achim Kaufmann - piano
Valdi Kolli - bass
Jim Black - drums
По всем вопросам пишите личное сообщение пользователю M0p94ok.
16:10
155
Нет комментариев. Ваш будет первым!