Вы используете незарегистрированную версию компонента "Вкладки"!

Поиск

(Avant-Garde, Post-Bop) Arthur Blythe - Exhale - 2003, FLAC (tracks+.cue), lossless

(Avant-Garde, Post-Bop) Arthur Blythe - Exhale - 2003, FLAC (tracks+.cue), lossless
Треклист:
Arthur Blythe / Exhale
Жанр: Avant-Garde, Post-Bop
Страна-производитель диска: U.S.A.
Год издания: 2003
Издатель (лейбл): Savant Records
Номер по каталогу: SCD 2050
Аудиокодек: FLAC (*.flac)
Тип рипа: tracks+.cue
Битрейт аудио: lossless
Продолжительность: 1:05:40
Источник (релизер): Max Monteiro
Наличие сканов в содержимом раздачи: да
Треклист:
01. Cousin Mary (John Coltrane) 5:21
02. Come Sunday (Duke Ellington) 6:16
03. Exhaust Suite: Nonette (Bob Stewart) 3:17
04. Exhaust Suite: Surrender (Arthur Blythe) 4:10
05. Exhaust Suite: LC (Cecil Brooks III) 1:15
06. Exhaust Suite: Phase Two (Arthur Blythe) 2:31
07. Night Train (Jimmy Forrest / Oscar Washington) 6:14
08. 7/4 Thang (Arthur Blythe) 3:55
09. Equinox (John Coltrane) 9:10
10. Just Friends (John Klenner / Sam M. Lewis) 4:29
11. CJ (Bob Stewart) 5:26
12. All Blues (Miles Davis) 8:39
13. Straighten Up and Fly Right (Nat King Cole / Irving Mills) 4:04
14. Exhale (Arthur Blythe) 0:53
 
Лог создания рипа
Exact Audio Copy V1.0 beta 3 from 29. August 2011
EAC extraction logfile from 19. March 2013, 16:05
Arthur Blythe / Exhale
Used drive : SlimtypeeNAU508 5 Adapter: 1 ID: 0
Read mode : Secure
Utilize accurate stream : Yes
Defeat audio cache : Yes
Make use of C2 pointers : No
Read offset correction : 6
Overread into Lead-In and Lead-Out : No
Fill up missing offset samples with silence : Yes
Delete leading and trailing silent blocks : No
Null samples used in CRC calculations : Yes
Used interface : Native Win32 interface for Win NT & 2000
Gap handling : Appended to previous track
Used output format : User Defined Encoder
Selected bitrate : 768 kBit/s
Quality : High
Add ID3 tag : No
Command line compressor : C:\Program Files (x86)\Exact Audio Copy\Flac\flac.exe
Additional command line options : -8 -V -T "ARTIST=%artist%" -T "TITLE=%title%" -T "ALBUM=%albumtitle%" -T "DATE=%year%" -T "TRACKNUMBER=%tracknr%" -T "GENRE=%genre%" -T "PERFORMER=%albuminterpret%" -T "COMPOSER=%composer%" %haslyrics%--tag-from-file=LYRICS="%lyricsfile%"%haslyrics% -T "ALBUMARTIST=%albumartist%" -T "DISCNUMBER=%cdnumber%" -T "TOTALDISCS=%totalcds%" -T "TOTALTRACKS=%numtracks%" -T "COMMENT=%comment%" %source% -o %dest%
TOC of the extracted CD
Track | Start | Length | Start sector | End sector
---------------------------------------------------------
1 | 0:00.00 | 5:20.64 | 0 | 24063
2 | 5:20.64 | 6:16.21 | 24064 | 52284
3 | 11:37.10 | 3:16.41 | 52285 | 67025
4 | 14:53.51 | 4:10.19 | 67026 | 85794
5 | 19:03.70 | 1:15.10 | 85795 | 91429
6 | 20:19.05 | 2:31.21 | 91430 | 102775
7 | 22:50.26 | 6:14.16 | 102776 | 130841
8 | 29:04.42 | 3:54.61 | 130842 | 148452
9 | 32:59.28 | 9:10.03 | 148453 | 189705
10 | 42:09.31 | 4:28.58 | 189706 | 209863
11 | 46:38.14 | 5:26.01 | 209864 | 234314
12 | 52:04.15 | 8:38.64 | 234315 | 273228
13 | 60:43.04 | 4:04.03 | 273229 | 291531
14 | 64:47.07 | 0:53.06 | 291532 | 295512
Track 1
Filename C:\EAC rips\01 - Cousin Mary.wav
Pre-gap length 0:00:02.00
Peak level 96.6 %
Extraction speed 2.2 X
Track quality 100.0 %
Test CRC A622FA58
Copy CRC A622FA58
Accurately ripped (confidence 2) [DFA5D661] (AR v1)
Copy OK
Track 2
Filename C:\EAC rips\02 - Come Sunday.wav
Pre-gap length 0:00:03.25
Peak level 96.6 %
Extraction speed 2.6 X
Track quality 100.0 %
Test CRC 3A52882E
Copy CRC 3A52882E
Accurately ripped (confidence 2) [326EB6CD] (AR v1)
Copy OK
Track 3
Filename C:\EAC rips\03 - Exhaust Suite - Nonette.wav
Pre-gap length 0:00:03.24
Peak level 96.6 %
Extraction speed 2.1 X
Track quality 99.9 %
Test CRC DB7C351B
Copy CRC DB7C351B
Accurately ripped (confidence 2) [EE6D3FF9] (AR v1)
Copy OK
Track 4
Filename C:\EAC rips\04 - Exhaust Suite - Surrender.wav
Peak level 96.6 %
Extraction speed 2.9 X
Track quality 100.0 %
Test CRC B5D6AEDF
Copy CRC B5D6AEDF
Accurately ripped (confidence 2) [7390C3CB] (AR v1)
Copy OK
Track 5
Filename C:\EAC rips\05 - Exhaust Suite - LC.wav
Peak level 81.5 %
Extraction speed 2.3 X
Track quality 100.0 %
Test CRC 6BB8DA23
Copy CRC 6BB8DA23
Accurately ripped (confidence 2) [1A8F69E4] (AR v1)
Copy OK
Track 6
Filename C:\EAC rips\06 - Exhaust Suite - Phase Two.wav
Peak level 96.6 %
Extraction speed 2.8 X
Track quality 100.0 %
Test CRC D86310F6
Copy CRC D86310F6
Accurately ripped (confidence 2) [61AAE30B] (AR v1)
Copy OK
Track 7
Filename C:\EAC rips\07 - Night Train.wav
Pre-gap length 0:00:04.37
Peak level 96.6 %
Extraction speed 3.4 X
Track quality 100.0 %
Test CRC 89771DEF
Copy CRC 89771DEF
Accurately ripped (confidence 2) [5ACC4801] (AR v1)
Copy OK
Track 8
Filename C:\EAC rips\08 - 7-4 Thang.wav
Pre-gap length 0:00:03.27
Peak level 96.6 %
Extraction speed 3.5 X
Track quality 100.0 %
Test CRC FB3E0739
Copy CRC FB3E0739
Accurately ripped (confidence 2) [FB739418] (AR v1)
Copy OK
Track 9
Filename C:\EAC rips\09 - Equinox.wav
Pre-gap length 0:00:03.37
Peak level 96.6 %
Extraction speed 4.0 X
Track quality 100.0 %
Test CRC D3055F0D
Copy CRC D3055F0D
Accurately ripped (confidence 2) [65513921] (AR v1)
Copy OK
Track 10
Filename C:\EAC rips\10 - Just Friends.wav
Pre-gap length 0:00:03.36
Peak level 96.6 %
Extraction speed 4.0 X
Track quality 100.0 %
Test CRC B953549C
Copy CRC B953549C
Accurately ripped (confidence 2) [7A8107A4] (AR v1)
Copy OK
Track 11
Filename C:\EAC rips\11 - CJ.wav
Pre-gap length 0:00:03.30
Peak level 96.6 %
Extraction speed 3.6 X
Track quality 99.9 %
Test CRC 0FBC7D33
Copy CRC 0FBC7D33
Accurately ripped (confidence 2) [C4D531F5] (AR v1)
Copy OK
Track 12
Filename C:\EAC rips\12 - All Blues.wav
Peak level 96.6 %
Extraction speed 4.6 X
Track quality 100.0 %
Test CRC 2E5B52AF
Copy CRC 2E5B52AF
Accurately ripped (confidence 2) [D54A8302] (AR v1)
Copy OK
Track 13
Filename C:\EAC rips\13 - Straighten Up and Fly Right.wav
Pre-gap length 0:00:03.36
Peak level 96.6 %
Extraction speed 3.7 X
Track quality 99.9 %
Test CRC 3C8EE2DB
Copy CRC 3C8EE2DB
Accurately ripped (confidence 2) [46B7FB88] (AR v1)
Copy OK
Track 14
Filename C:\EAC rips\14 - Exhale.wav
Pre-gap length 0:00:03.02
Peak level 96.6 %
Extraction speed 3.0 X
Track quality 100.0 %
Test CRC 654E46E0
Copy CRC 654E46E0
Accurately ripped (confidence 2) [30A50F6B] (AR v1)
Copy OK
All tracks accurately ripped
No errors occurred
End of status report
---- CUETools DB Plugin V2.1.4
[CTDB TOCID: 8ydtcytWcaQyuhrCYgVsCAZGQ48-] disk not present in database
Submit result: 8ydtcytWcaQyuhrCYgVsCAZGQ48- has been uploaded
==== Log checksum B32186FC2910C6E17DBCC24F0B2CFD7FCDA58ADDAC8DD2D6BE722498DA3EB028 ====
 
Содержание индексной карты (.CUE)
REM GENRE Jazz
REM DATE 2003
REM DISCID C90F640E
REM COMMENT "ExactAudioCopy v1.0b3"
CATALOG 0633842205021
PERFORMER "Arthur Blythe"
TITLE "Exhale"
FILE "01 - Cousin Mary.wav" WAVE
TRACK 01 AUDIO
TITLE "Cousin Mary"
PERFORMER "Arthur Blythe"
ISRC USSTR0305001
INDEX 01 00:00:00
TRACK 02 AUDIO
TITLE "Come Sunday"
PERFORMER "Arthur Blythe"
ISRC USSTR0305002
INDEX 00 05:17:39
FILE "02 - Come Sunday.wav" WAVE
INDEX 01 00:00:00
TRACK 03 AUDIO
TITLE "Exhaust Suite: Nonette"
PERFORMER "Arthur Blythe"
ISRC USSTR0305003
INDEX 00 06:12:72
FILE "03 - Exhaust Suite - Nonette.wav" WAVE
INDEX 01 00:00:00
FILE "04 - Exhaust Suite - Surrender.wav" WAVE
TRACK 04 AUDIO
TITLE "Exhaust Suite: Surrender"
PERFORMER "Arthur Blythe"
ISRC USSTR0305004
INDEX 01 00:00:00
FILE "05 - Exhaust Suite - LC.wav" WAVE
TRACK 05 AUDIO
TITLE "Exhaust Suite: LC"
PERFORMER "Arthur Blythe"
ISRC USSTR0305005
INDEX 01 00:00:00
FILE "06 - Exhaust Suite - Phase Two.wav" WAVE
TRACK 06 AUDIO
TITLE "Exhaust Suite: Phase Two"
PERFORMER "Arthur Blythe"
ISRC USSTR0305006
INDEX 01 00:00:00
TRACK 07 AUDIO
TITLE "Night Train"
PERFORMER "Arthur Blythe"
ISRC USSTR0305007
INDEX 00 02:26:59
FILE "07 - Night Train.wav" WAVE
INDEX 01 00:00:00
TRACK 08 AUDIO
TITLE "7/4 Thang"
PERFORMER "Arthur Blythe"
ISRC USSTR0305008
INDEX 00 06:10:64
FILE "08 - 7-4 Thang.wav" WAVE
INDEX 01 00:00:00
TRACK 09 AUDIO
TITLE "Equinox"
PERFORMER "Arthur Blythe"
ISRC USSTR0305009
INDEX 00 03:51:24
FILE "09 - Equinox.wav" WAVE
INDEX 01 00:00:00
TRACK 10 AUDIO
TITLE "Just Friends"
PERFORMER "Arthur Blythe"
ISRC USSTR0305010
INDEX 00 09:06:42
FILE "10 - Just Friends.wav" WAVE
INDEX 01 00:00:00
TRACK 11 AUDIO
TITLE "CJ"
PERFORMER "Arthur Blythe"
ISRC USSTR0305011
INDEX 00 04:25:28
FILE "11 - CJ.wav" WAVE
INDEX 01 00:00:00
FILE "12 - All Blues.wav" WAVE
TRACK 12 AUDIO
TITLE "All Blues"
PERFORMER "Arthur Blythe"
ISRC USSTR0305012
INDEX 01 00:00:00
TRACK 13 AUDIO
TITLE "Straighten Up and Fly Right"
PERFORMER "Arthur Blythe"
ISRC USSTR0305013
INDEX 00 08:35:28
FILE "13 - Straighten Up and Fly Right.wav" WAVE
INDEX 01 00:00:00
TRACK 14 AUDIO
TITLE "Exhale"
PERFORMER "Arthur Blythe"
ISRC USSTR0305014
INDEX 00 04:01:01
FILE "14 - Exhale.wav" WAVE
INDEX 01 00:00:00
Доп. информация: Recorded at Tedesco Recording Studios, Paramus, NJ on October 14, 2002.
 
Состав
Arthur Blythe – Alto Saxophone
John Hicks – Piano (B3 Organ Tracks 3 & 6)
Bob Stewart – Tuba
Cecil Brooks III – Drums
Any questions -> support@pro-jazz.com. По всем вопросам пишите -> support@pro-jazz.com
10:16
206
Нет комментариев. Ваш будет первым!