Вы используете незарегистрированную версию компонента "Вкладки"!

Поиск

(Avant-Garde Pop, Experimental, Tzadik) Yuka Honda - Heart Chamber Phantoms - 2010, FLAC (tracks+.cue), lossless

Треклист:
Yuka Honda - Heart Chamber Phantoms
Жанр: Avant-Garde Pop, Experimental, Tzadik
Год выпуска диска: 2010
Производитель диска: Tzadik TZ 7722
Аудио кодек: FLAC
Тип рипа: tracks+.cue
Битрейт аудио: lossless
Источник: СЕТъ
Продолжительность: 45:51
Трэклист:
01. Phantom With An Armor
02. Hydrosphere
03. Last Night, Late, By The Lake
04. Heart Chamber, Part I: Rock
05. Heart Chamber, Part II: Zoe
06. Waters On Mars
07. Little Hope
08. Robot Elephant’s Tears
09. Cycle Of Water
10. Don’t Be So Naive
Доп. информация:
 
скрытый текст
Yuka Honda is a Japanese musician who resides in New York City. She is a multi-instrumentalist musician, composer, record producer, and co-founder of the band Cibo Matto. Throughout her career, she has collaborated with a diverse array of musicians, including Petra Haden, Sean Lennon, Tricky, Harper Simon, Beastie Boys, Los Lobos, Mitchell Froom, Medeski Martin & Wood, Marc Ribot, Arto Lindsay, Edie Brickell, Vincent Gallo, Luscious Jackson, Dave Douglas, Bernie Worrell and Caetano Veloso.
--------
For her third solo album for Tzadik Records’ Oracles series, releases that “celebrate the diversity and creativity of women in experimental music making”, Yuka Honda delivers another fascinating, mostly instrumental set, this time using her programming and production skills to create what the label describes as “a hypnotic groove for young moderns”.
Featuring two co-writes with Sean Lennon, with whom she currently performs in Yoko Ono’s regenerated Plastic Ono Band, and three with horns arranger Michael Leonhart (who also guests on percussion, keyboards and vibraphone), Heart Chamber Phantoms looks sets to be her most ambitious solo outing to date. Regular collaborators Dougie Brown (drums) and Courtney Kaiser (vocals) are among the other guests.
-------
The versatile composer/performer who has worked with Cibo Matto, Yoko Ono, Sean Lennon, Mike Watt and many others, creates a third CD for the Tzadik Oracles series highlighting her fascinating new instrumental approach. Mixing funky beats, hip samples and instruments both acoustic and electric, Yuka’s dramatic sense of sound and color creates a hypnotic groove for young moderns. Endlessly listenable, her first CD in over five years is also her very best!
 
CUE
TITLE "Heart Chamber Phantoms"
PERFORMER "Yuka Honda"
REM GENRE "Tzadik"
REM DATE 2010
REM REPLAYGAIN_ALBUM_GAIN -6.99 dB
REM REPLAYGAIN_ALBUM_PEAK 0.966187
FILE "01 - Phantom With An Armor.wav" WAVE
TRACK 01 AUDIO
TITLE "Phantom With An Armor"
REM REPLAYGAIN_TRACK_GAIN -8.30 dB
REM REPLAYGAIN_TRACK_PEAK 0.966125
INDEX 01 00:00:00
FILE "02 - Hydrosphere.wav" WAVE
TRACK 02 AUDIO
TITLE "Hydrosphere"
REM REPLAYGAIN_TRACK_GAIN -7.76 dB
REM REPLAYGAIN_TRACK_PEAK 0.966156
INDEX 01 00:00:00
FILE "03 - Last Night, Late, By The Lake.wav" WAVE
TRACK 03 AUDIO
TITLE "Last Night, Late, By The Lake"
REM REPLAYGAIN_TRACK_GAIN -3.46 dB
REM REPLAYGAIN_TRACK_PEAK 0.917114
INDEX 01 00:00:00
FILE "04 - Heart Chamber, Part Iпјљ Rock.wav" WAVE
TRACK 04 AUDIO
TITLE "Heart Chamber, Part I: Rock"
REM REPLAYGAIN_TRACK_GAIN -6.18 dB
REM REPLAYGAIN_TRACK_PEAK 0.966125
INDEX 01 00:00:00
FILE "05 - Heart Chamber, Part IIпјљ Zoe.wav" WAVE
TRACK 05 AUDIO
TITLE "Heart Chamber, Part II: Zoe"
REM REPLAYGAIN_TRACK_GAIN -7.35 dB
REM REPLAYGAIN_TRACK_PEAK 0.966125
INDEX 01 00:00:00
FILE "06 - Waters On Mars.wav" WAVE
TRACK 06 AUDIO
TITLE "Waters On Mars"
REM REPLAYGAIN_TRACK_GAIN -7.55 dB
REM REPLAYGAIN_TRACK_PEAK 0.966187
INDEX 01 00:00:00
FILE "07 - Little Hope.wav" WAVE
TRACK 07 AUDIO
TITLE "Little Hope"
REM REPLAYGAIN_TRACK_GAIN -3.21 dB
REM REPLAYGAIN_TRACK_PEAK 0.966125
INDEX 01 00:00:00
FILE "08 - Robot Elephant's Tears.wav" WAVE
TRACK 08 AUDIO
TITLE "Robot Elephant's Tears"
REM REPLAYGAIN_TRACK_GAIN -6.41 dB
REM REPLAYGAIN_TRACK_PEAK 0.966156
INDEX 01 00:00:00
FILE "09 - Cycle of Water.wav" WAVE
TRACK 09 AUDIO
TITLE "Cycle of Water"
REM REPLAYGAIN_TRACK_GAIN -3.98 dB
REM REPLAYGAIN_TRACK_PEAK 0.966125
INDEX 01 00:00:00
FILE "10 - Don’t Be So Naive.wav" WAVE
TRACK 10 AUDIO
TITLE "Don’t Be So Naive"
REM REPLAYGAIN_TRACK_GAIN -6.84 dB
REM REPLAYGAIN_TRACK_PEAK 0.966156
INDEX 01 00:00:00
 
XLD extraction logfile
X Lossless Decoder version 20100209 (116.0)
XLD extraction logfile from 2010-02-09 18:22:10 +0000
Yuka Honda / Heart Chamber Phantoms
Used drive : MATSHITA DVD-R UJ-85J (revision FCQ5)
Use cdparanoia mode : YES (CDParanoia III 10.2 engine)
Disable audio cache : OK for the drive with cache less than 2750KB
Make use of C2 pointers : NO
Read offset correction : 102
Max retry count : 100
TOC of the extracted CD
Track | Start | Length | Start sector | End sector
---------------------------------------------------------
1 | 00:00:00 | 04:08:59 | 0 | 18658
2 | 04:08:59 | 04:46:31 | 18659 | 40139
3 | 08:55:15 | 04:56:00 | 40140 | 62339
4 | 13:51:15 | 04:02:68 | 62340 | 80557
5 | 17:54:08 | 04:12:10 | 80558 | 99467
6 | 22:06:18 | 03:44:03 | 99468 | 116270
7 | 25:50:21 | 04:24:04 | 116271 | 136074
8 | 30:14:25 | 04:01:28 | 136075 | 154177
9 | 34:15:53 | 05:59:64 | 154178 | 181166
10 | 40:15:42 | 05:35:67 | 181167 | 206358
All Tracks
Album gain : -6.99 dB
Peak : 0.966187
Track 01
Filename : /XLD/01 - Phantom With An Armor.flac
/XLD/01 - Phantom With An Armor.mp3
Pre-gap length : 00:02:00
Track gain : -8.30 dB
Peak : 0.966125
CRC32 hash (test run) : AB1BA4D8
CRC32 hash : AB1BA4D8
CRC32 hash (skip zero) : C81561E6
AccurateRip signature : 3C0FEF9B
->Track not present in AccurateRip database.
Statistics
Read error : 0
Skipped (treated as error) : 0
Edge jitter error (maybe fixed) : 0
Atom jitter error (maybe fixed) : 14
Drift error (maybe fixed) : 0
Dropped bytes error (maybe fixed) : 0
Duplicated bytes error (maybe fixed) : 0
Inconsistency in error sectors : 0
Track 02
Filename : /XLD/02 - Hydrosphere.flac
/XLD/02 - Hydrosphere.mp3
Track gain : -7.76 dB
Peak : 0.966156
CRC32 hash (test run) : 31C91CE0
CRC32 hash : 31C91CE0
CRC32 hash (skip zero) : AC96AD95
AccurateRip signature : 2B52221F
->Track not present in AccurateRip database.
Statistics
Read error : 0
Skipped (treated as error) : 0
Edge jitter error (maybe fixed) : 0
Atom jitter error (maybe fixed) : 8
Drift error (maybe fixed) : 0
Dropped bytes error (maybe fixed) : 0
Duplicated bytes error (maybe fixed) : 0
Inconsistency in error sectors : 0
Track 03
Filename : /XLD/03 - Last Night, Late, By The Lake.flac
/XLD/03 - Last Night, Late, By The Lake.mp3
Track gain : -3.46 dB
Peak : 0.917114
CRC32 hash (test run) : 81451944
CRC32 hash : 81451944
CRC32 hash (skip zero) : F786EF5E
AccurateRip signature : 77936F86
->Track not present in AccurateRip database.
Statistics
Read error : 0
Skipped (treated as error) : 0
Edge jitter error (maybe fixed) : 0
Atom jitter error (maybe fixed) : 0
Drift error (maybe fixed) : 0
Dropped bytes error (maybe fixed) : 0
Duplicated bytes error (maybe fixed) : 0
Inconsistency in error sectors : 0
Track 04
Filename : /XLD/04 - Heart Chamber, Part Iпјљ Rock.flac
/XLD/04 - Heart Chamber, Part Iпјљ Rock.mp3
Track gain : -6.18 dB
Peak : 0.966125
CRC32 hash (test run) : 3DAE5A6F
CRC32 hash : 3DAE5A6F
CRC32 hash (skip zero) : 1256FADF
AccurateRip signature : D5470554
->Track not present in AccurateRip database.
Statistics
Read error : 0
Skipped (treated as error) : 0
Edge jitter error (maybe fixed) : 0
Atom jitter error (maybe fixed) : 0
Drift error (maybe fixed) : 0
Dropped bytes error (maybe fixed) : 0
Duplicated bytes error (maybe fixed) : 0
Inconsistency in error sectors : 0
Track 05
Filename : /XLD/05 - Heart Chamber, Part IIпјљ Zoe.flac
/XLD/05 - Heart Chamber, Part IIпјљ Zoe.mp3
Track gain : -7.35 dB
Peak : 0.966125
CRC32 hash (test run) : 58B23831
CRC32 hash : 58B23831
CRC32 hash (skip zero) : 36CD9ED2
AccurateRip signature : FA74DA70
->Track not present in AccurateRip database.
Statistics
Read error : 0
Skipped (treated as error) : 0
Edge jitter error (maybe fixed) : 0
Atom jitter error (maybe fixed) : 0
Drift error (maybe fixed) : 0
Dropped bytes error (maybe fixed) : 0
Duplicated bytes error (maybe fixed) : 0
Inconsistency in error sectors : 0
Track 06
Filename : /XLD/06 - Waters On Mars.flac
/XLD/06 - Waters On Mars.mp3
Track gain : -7.55 dB
Peak : 0.966187
CRC32 hash (test run) : 66B43D9F
CRC32 hash : 66B43D9F
CRC32 hash (skip zero) : FC24F8AD
AccurateRip signature : 5CA7FE49
->Track not present in AccurateRip database.
Statistics
Read error : 0
Skipped (treated as error) : 0
Edge jitter error (maybe fixed) : 0
Atom jitter error (maybe fixed) : 0
Drift error (maybe fixed) : 0
Dropped bytes error (maybe fixed) : 0
Duplicated bytes error (maybe fixed) : 0
Inconsistency in error sectors : 0
Track 07
Filename : /XLD/07 - Little Hope.flac
/XLD/07 - Little Hope.mp3
Track gain : -3.21 dB
Peak : 0.966125
CRC32 hash (test run) : 75842D52
CRC32 hash : 75842D52
CRC32 hash (skip zero) : 6827C39A
AccurateRip signature : 437F10AC
->Track not present in AccurateRip database.
Statistics
Read error : 0
Skipped (treated as error) : 0
Edge jitter error (maybe fixed) : 0
Atom jitter error (maybe fixed) : 0
Drift error (maybe fixed) : 0
Dropped bytes error (maybe fixed) : 0
Duplicated bytes error (maybe fixed) : 0
Inconsistency in error sectors : 0
Track 08
Filename : /XLD/08 - Robot Elephant's Tears.flac
/XLD/08 - Robot Elephant's Tears.mp3
Track gain : -6.41 dB
Peak : 0.966156
CRC32 hash (test run) : 6BEA5795
CRC32 hash : 6BEA5795
CRC32 hash (skip zero) : C44ABC0F
AccurateRip signature : F97F69AD
->Track not present in AccurateRip database.
Statistics
Read error : 0
Skipped (treated as error) : 0
Edge jitter error (maybe fixed) : 0
Atom jitter error (maybe fixed) : 0
Drift error (maybe fixed) : 0
Dropped bytes error (maybe fixed) : 0
Duplicated bytes error (maybe fixed) : 0
Inconsistency in error sectors : 0
Track 09
Filename : /XLD/09 - Cycle of Water.flac
/XLD/09 - Cycle of Water.mp3
Track gain : -3.98 dB
Peak : 0.966125
CRC32 hash (test run) : 272D8B00
CRC32 hash : 272D8B00
CRC32 hash (skip zero) : F52B7BB3
AccurateRip signature : 90451D75
->Track not present in AccurateRip database.
Statistics
Read error : 0
Skipped (treated as error) : 0
Edge jitter error (maybe fixed) : 0
Atom jitter error (maybe fixed) : 0
Drift error (maybe fixed) : 0
Dropped bytes error (maybe fixed) : 0
Duplicated bytes error (maybe fixed) : 0
Inconsistency in error sectors : 0
Track 10
Filename : /XLD/10 - Don’t Be So Naive.flac
/XLD/10 - Don’t Be So Naive.mp3
Track gain : -6.84 dB
Peak : 0.966156
CRC32 hash (test run) : 39E9004B
CRC32 hash : 39E9004B
CRC32 hash (skip zero) : 2DB604B6
AccurateRip signature : 8D0109EB
->Track not present in AccurateRip database.
Statistics
Read error : 0
Skipped (treated as error) : 0
Edge jitter error (maybe fixed) : 0
Atom jitter error (maybe fixed) : 0
Drift error (maybe fixed) : 0
Dropped bytes error (maybe fixed) : 0
Duplicated bytes error (maybe fixed) : 0
Inconsistency in error sectors : 0
No errors occurred
End of status report
выложил ivan_buratino, спасибо.
Any questions -> support@pro-jazz.com. По всем вопросам пишите -> support@pro-jazz.com
22:34
123
Нет комментариев. Ваш будет первым!