Вы используете незарегистрированную версию компонента "Вкладки"!

Поиск

(Avant-Garde / Norwegian Folk / Rune Grammofon) Nils Økland / Okland - Bris - 2004, FLAC (image+.cue), lossless

(Avant-Garde / Norwegian Folk / Rune Grammofon) Nils Økland / Okland - Bris - 2004, FLAC (image+.cue), lossless
Треклист:
Nils Økland - Bris
Жанр: Avant-Garde / Norwegian Folk / Rune Grammofon
Год выпуска диска: 2004
Производитель диска: Norway (Rune Grammofon RCD 2042)
Аудио кодек: FLAC
Тип рипа: image+.cue
Битрейт аудио: lossless
Продолжительность: 46:49
Nils Økland Hardanger fiddle, violin, viola d'amore
Sigbørn Apeland harmonium
Mats Eilertsen bass
Per Oddvar Johansen drums
Håkon Mørch Stene percussion
1. Grålys
2. Håstabø
3. Myrkjeblått
4. Slør
5. Blond Blå
6. Bris
7. Notten
8. Seil
9. Flyt
10. Avminnast
11. Gjennom
12. Bønn

 
Release notes
"Nils Økland is an innovative violinist and Hardanger fiddle specialist who is creatively expanding the range of the traditional music of his homeland. He is a renewer of folk music, consistently building bridges to classical, contemporary and improvised musics. His playing combines freedom with respect for Norway's musical heritage. He is concerned both with the preservation of the oral folk music tradition and with the experimental possibilities of the music when it is charged with modern impulses. Bris, meaning 'Breeze', is Økland´s third album, his second for Rune Grammofon, and the first where practically all the material is written by himself. This is quite unusual for the genre, but only emphasizes his interest to move in new directions and to explore new possibilities in his instruments and his playing, both solo and with a group. The group assembled for this recording is in itself ample proof of genre crossing, with Sigbjørn Apeland the only one left from previous albums Blå Harding and Straum (RCD 2015). Per Oddvar Johansen and Mats Eilertsen (Food, etc.) are young veterans of the flowering Norwegian jazz scene, while Håkon Stene, who appeared on Jono El Grande´s Fevergreens (RCD 2031), comes from the classical world. Parts of the album are based on music Økland wrote for Melankolia, a play based on Jon Fosse´s novel about the Norwegian painter Lars Hertervig (1830-1902)."
 
EAC Report
Exact Audio Copy V0.99 prebeta 4 from 23. January 2008
EAC extraction logfile from 3. May 2009, 21:45
Nils Økland / Bris
Used drive : TSSTcorpCD/DVDW SH-S182M Adapter: 2 ID: 0
Read mode : Secure
Utilize accurate stream : Yes
Defeat audio cache : Yes
Make use of C2 pointers : No
Read offset correction : 6
Overread into Lead-In and Lead-Out : No
Fill up missing offset samples with silence : Yes
Delete leading and trailing silent blocks : No
Null samples used in CRC calculations : Yes
Used interface : Installed external ASPI interface
Used output format : User Defined Encoder
Selected bitrate : 1024 kBit/s
Quality : High
Add ID3 tag : No
Command line compressor : C:\Program Files\Exact Audio Copy\FLAC\FLAC.EXE
Additional command line options : -8 -V -T "ARTIST=%a" -T "TITLE=%t" -T "ALBUM=%g" -T "DATE=%y" -T "TRACKNUMBER=%n" -T "GENRE=%m" -T "COMMENT=%e" %s -o %d
TOC of the extracted CD
Track | Start | Length | Start sector | End sector
---------------------------------------------------------
1 | 0:00.00 | 3:15.71 | 0 | 14695
2 | 3:15.71 | 2:57.02 | 14696 | 27972
3 | 6:12.73 | 3:03.52 | 27973 | 41749
4 | 9:16.50 | 3:16.11 | 41750 | 56460
5 | 12:32.61 | 3:26.13 | 56461 | 71923
6 | 15:58.74 | 4:58.16 | 71924 | 94289
7 | 20:57.15 | 2:17.14 | 94290 | 104578
8 | 23:14.29 | 4:48.41 | 104579 | 126219
9 | 28:02.70 | 6:23.49 | 126220 | 154993
10 | 34:26.44 | 3:38.33 | 154994 | 171376
11 | 38:05.02 | 3:53.51 | 171377 | 188902
12 | 41:58.53 | 4:49.73 | 188903 | 210650
Range status and errors
Selected range
Filename C:\Documents and Settings\Igor\My Documents\My Music\eac\Nils Økland - Bris.wav
Peak level 93.9 %
Range quality 100.0 %
Test CRC 29294ECF
Copy CRC 29294ECF
Copy OK
No errors occurred
AccurateRip summary
Track 1 accurately ripped (confidence 1) [F1693CF2]
Track 2 accurately ripped (confidence 1) [F0A06519]
Track 3 accurately ripped (confidence 1) [51B885E0]
Track 4 accurately ripped (confidence 1) [02801456]
Track 5 accurately ripped (confidence 1) [04EE8CE4]
Track 6 accurately ripped (confidence 1) [A442776E]
Track 7 accurately ripped (confidence 2) [2CA0A61F]
Track 8 accurately ripped (confidence 1) [AF309D38]
Track 9 accurately ripped (confidence 1) [E3F5411D]
Track 10 accurately ripped (confidence 1) [AE4A81B4]
Track 11 accurately ripped (confidence 1) [649B561B]
Track 12 accurately ripped (confidence 1) [0F64C8FC]
All tracks accurately ripped
End of status report
Any questions -> support@pro-jazz.com. По всем вопросам пишите -> support@pro-jazz.com
13:34
147
Нет комментариев. Ваш будет первым!