Вы используете незарегистрированную версию компонента "Вкладки"!

Поиск

(avant-garde) Muhal Richard Abrams, George Lewis, Roscoe Mitchell - Streaming (2005), FLAC (tracks+.cue), lossless

(avant-garde) Muhal Richard Abrams, George Lewis, Roscoe Mitchell - Streaming (2005), FLAC (tracks+.cue), lossless
Треклист:


Muhal Richard Abrams, George Lewis, Roscoe Mitchell - Streaming (2005)

Жанр: avant-garde
Год выпуска: 2005
Издатель (лейбл): Pi Recordings
Формат: FLAC (tracks+.cue)
Битрейт аудио: lossless
Продолжительность 1`13`44
Источник: what.cd
Piano, Percussion, Flute [Bamboo Flute] – Muhal Richard Abrams
Soprano Saxophone, Alto Saxophone, Percussion – Roscoe Mitchell
Trombone, Computer [Laptop] – George Lewis

tracks

1 Scrape 10:02
2 Bound 11:02
3 Dramaturns 18:27
4 Soundhear 16:36
5 Streaming 17:34


 
.log
Exact Audio Copy V0.99 prebeta 4 from 23. January 2008
EAC extraction logfile from 1. April 2009, 5:34
Muhal Richard Abrans, George Lewis, Roscoe Mitchell / Streaming
Used drive : PLEXTOR DVDR PX-760A Adapter: 4 ID: 1
Read mode : Secure
Utilize accurate stream : Yes
Defeat audio cache : Yes
Make use of C2 pointers : No
Read offset correction : 30
Overread into Lead-In and Lead-Out : No
Fill up missing offset samples with silence : Yes
Delete leading and trailing silent blocks : No
Null samples used in CRC calculations : Yes
Used interface : Installed external ASPI interface
Gap handling : Appended to previous track
Used output format : User Defined Encoder
Selected bitrate : 768 kBit/s
Quality : High
Add ID3 tag : No
Command line compressor : C:\Program Files\Exact Audio Copy\FLAC\FLAC.EXE
Additional command line options : -8 -V -T "ARTIST=%a" -T "TITLE=%t" -T "ALBUM=%g" -T "DATE=%y" -T "TRACKNUMBER=%n" -T "TOTALTRACKS=%x" -T "GENRE=%m" -T "ALBUMARTIST=%v" -T "ALBUM ARTIST=%v" -T "COMMENT=EAC V0.99 prebeta 4, Secure Mode, Test & Copy, Accurat
TOC of the extracted CD
Track | Start | Length | Start sector | End sector
---------------------------------------------------------
1 | 0:00.00 | 10:02.44 | 0 | 45193
2 | 10:02.44 | 11:02.24 | 45194 | 94867
3 | 21:04.68 | 18:27.48 | 94868 | 177940
4 | 39:32.41 | 16:36.30 | 177941 | 252670
5 | 56:08.71 | 17:34.74 | 252671 | 331794
Track 1
Filename M:\to upload\15\Muhal Richard Abrams, George Lewis, Roscoe Mitchell - Streaming (2006) [FLAC]\1\01 - Scrape.wav
Pre-gap length 0:00:02.00
Peak level 96.6 %
Track quality 100.0 %
Test CRC 20F40A6C
Copy CRC 20F40A6C
Accurately ripped (confidence 1) [29DDFF70]
Copy OK
Track 2
Filename M:\to upload\15\Muhal Richard Abrams, George Lewis, Roscoe Mitchell - Streaming (2006) [FLAC]\1\02 - Bound.wav
Pre-gap length 0:00:02.00
Peak level 96.6 %
Track quality 100.0 %
Test CRC 241840E1
Copy CRC 241840E1
Accurately ripped (confidence 1) [A3554239]
Copy OK
Track 3
Filename M:\to upload\15\Muhal Richard Abrams, George Lewis, Roscoe Mitchell - Streaming (2006) [FLAC]\1\03 - Dramaturns.wav
Pre-gap length 0:00:02.00
Peak level 96.6 %
Track quality 100.0 %
Test CRC C330DE15
Copy CRC C330DE15
Accurately ripped (confidence 1) [95C0B5C3]
Copy OK
Track 4
Filename M:\to upload\15\Muhal Richard Abrams, George Lewis, Roscoe Mitchell - Streaming (2006) [FLAC]\1\04 - Soundhear.wav
Pre-gap length 0:00:02.00
Peak level 96.6 %
Track quality 100.0 %
Test CRC C50F9827
Copy CRC C50F9827
Accurately ripped (confidence 1) [F9131309]
Copy OK
Track 5
Filename M:\to upload\15\Muhal Richard Abrams, George Lewis, Roscoe Mitchell - Streaming (2006) [FLAC]\1\05 - Streaming.wav
Pre-gap length 0:00:02.00
Peak level 96.6 %
Track quality 99.9 %
Test CRC ABC96707
Copy CRC ABC96707
Accurately ripped (confidence 1) [B737A423]
Copy OK
All tracks accurately ripped
No errors occurred
End of status report
 
.cue
REM ACCURATERIPID 000dc545-00423c92-38114705
REM COMMENT "CUETools generated dummy CUE sheet"
PERFORMER "Muhal Richard Abrams; George Lewis; Roscoe Mitchell"
TITLE "Streaming"
REM DATE 2005
REM GENRE "Avant - jazz"
FILE "01 - Scrape.flac" WAVE
TRACK 01 AUDIO
PERFORMER "Muhal Richard Abrams; George Lewis; Roscoe Mitchell"
TITLE "Scrape"
INDEX 01 00:00:00
TRACK 02 AUDIO
PERFORMER "Muhal Richard Abrams; George Lewis; Roscoe Mitchell"
TITLE "Bound"
INDEX 00 10:00:44
FILE "02 - Bound.flac" WAVE
INDEX 01 00:00:00
TRACK 03 AUDIO
PERFORMER "Muhal Richard Abrams; George Lewis; Roscoe Mitchell"
TITLE "Dramaturns"
INDEX 00 11:00:24
FILE "03 - Dramaturns.flac" WAVE
INDEX 01 00:00:00
TRACK 04 AUDIO
PERFORMER "Muhal Richard Abrams; George Lewis; Roscoe Mitchell"
TITLE "Soundhear"
INDEX 00 18:25:48
FILE "04 - Soundhear.flac" WAVE
INDEX 01 00:00:00
TRACK 05 AUDIO
PERFORMER "Muhal Richard Abrams; George Lewis; Roscoe Mitchell"
TITLE "Streaming"
INDEX 00 16:34:30
FILE "05 - Streaming.flac" WAVE
INDEX 01 00:00:00
 
.accurip
[CUETools log; Date: 23/4/2012 00:23:03 AM; Version: 2.1.2a]
[CTDB TOCID: Yyt7nrykO3P63nH5oThXYeEKVQY-] disk not present in database.
[AccurateRip ID: 000dc545-00423c92-38114705] found.
Track [ CRC ] Status
01 [29ddff70] (6/6) Accurately ripped
02 [a3554239] (6/6) Accurately ripped
03 [95c0b5c3] (6/6) Accurately ripped
04 [f9131309] (6/6) Accurately ripped
05 [b737a423] (5/5) Accurately ripped
Track Peak [ CRC32 ] [W/O NULL] [ LOG ]
-- 96.6 [C826605E] [E60E997A]
01 96.6 [20F40A6C] [96D59AE2] CRC32
02 96.6 [241840E1] [E70ED8AF] CRC32
03 96.6 [C330DE15] [D0B9CA25] CRC32
04 96.6 [C50F9827] [6C6CFB14] CRC32
05 96.6 [ABC96707] [7E80E91F] CRC32

другие релизы
Any questions -> support@pro-jazz.com. По всем вопросам пишите -> support@pro-jazz.com
00:15
305
Нет комментариев. Ваш будет первым!