Вы используете незарегистрированную версию компонента "Вкладки"!

Поиск

(Avant-Garde / Modern Free / Modern Creative) Mike Reed's People, Places & Things - Proliferation - 2008, FLAC (image+.cue), lossless

Треклист:
Mike Reed's People, Places & Things - Proliferation

Жанр: Avant-Garde / Modern Free / Modern Creative
Год выпуска диска: 2008
Производитель диска: 482 Music 1060; USA
Аудио кодек: FLAC
Тип рипа: image+.cue
Битрейт аудио: lossless
Продолжительность: 59:07
Tim Haldeman: tenor saxophone, percussion, piano
Mike Reed: drums, piano
Jason Roebke: bass, percussion, piano
Greg Ward: alto saxophone, percussion, piano
1. Is-it
2. Wilbur's Tune
3. Be-Ware
4. People
5. Status Quo
6. Planet Earth
7. Sleepy
8. Places
9. FA
10. Pondering
11. Saturn
12. Things
 
EAC Report
Exact Audio Copy V0.99 prebeta 4 from 23. January 2008
EAC extraction logfile from 10. June 2010, 23:06
Mike Reed's People, Places & Things / Proliferation
Used drive : TSSTcorpCD/DVDW SH-S182M Adapter: 1 ID: 1
Read mode : Secure
Utilize accurate stream : Yes
Defeat audio cache : Yes
Make use of C2 pointers : No
Read offset correction : 6
Overread into Lead-In and Lead-Out : No
Fill up missing offset samples with silence : Yes
Delete leading and trailing silent blocks : No
Null samples used in CRC calculations : Yes
Used interface : Installed external ASPI interface
Used output format : User Defined Encoder
Selected bitrate : 1024 kBit/s
Quality : High
Add ID3 tag : No
Command line compressor : C:\Program Files\Exact Audio Copy\Flac\flac.exe
Additional command line options : -6 -V -T "ARTIST=%a" -T "TITLE=%t" -T "ALBUM=%g" -T "DATE=%y" -T "TRACKNUMBER=%n" -T "GENRE=%m" -T "COMMENT=EAC FLAC -6" %s
TOC of the extracted CD
Track | Start | Length | Start sector | End sector
---------------------------------------------------------
1 | 0:00.00 | 4:02.11 | 0 | 18160
2 | 4:02.11 | 5:01.54 | 18161 | 40789
3 | 9:03.65 | 6:46.46 | 40790 | 71285
4 | 15:50.36 | 1:37.65 | 71286 | 78625
5 | 17:28.26 | 5:24.65 | 78626 | 102990
6 | 22:53.16 | 7:24.16 | 102991 | 136306
7 | 30:17.32 | 5:37.02 | 136307 | 161583
8 | 35:54.34 | 5:51.13 | 161584 | 187921
9 | 41:45.47 | 5:14.15 | 187922 | 211486
10 | 46:59.62 | 4:28.39 | 211487 | 231625
11 | 51:28.26 | 3:18.11 | 231626 | 246486
12 | 54:46.37 | 4:20.59 | 246487 | 266045
Range status and errors
Selected range
Filename C:\Users\Igor\Music\eac\Mike Reed's People, Places & Things - Proliferation.wav
Peak level 100.0 %
Range quality 100.0 %
Test CRC ED9B0C08
Copy CRC ED9B0C08
Copy OK
No errors occurred
AccurateRip summary
Track 1 accurately ripped (confidence 1) [FBD45937]
Track 2 accurately ripped (confidence 1) [FF2EEF74]
Track 3 accurately ripped (confidence 1) [7887C1B2]
Track 4 accurately ripped (confidence 1) [7BB07D35]
Track 5 accurately ripped (confidence 1) [378B0050]
Track 6 accurately ripped (confidence 1) [2E13E24E]
Track 7 accurately ripped (confidence 1) [00E6DE55]
Track 8 accurately ripped (confidence 1) [4ADA21BF]
Track 9 accurately ripped (confidence 1) [2ACD642C]
Track 10 accurately ripped (confidence 1) [D79141BD]
Track 11 accurately ripped (confidence 1) [8835E98E]
Track 12 accurately ripped (confidence 1) [83683C88]
All tracks accurately ripped
End of status report

рип собственный
Any questions -> support@pro-jazz.com. По всем вопросам пишите -> support@pro-jazz.com
00:29
104
Нет комментариев. Ваш будет первым!