Вы используете незарегистрированную версию компонента "Вкладки"!

Поиск

(Avant Garde, Modern Free Jazz) The Thing with Otomo Yoshihide - Shinjuku Crawl (Mats Gustafsson, Paal Nilssen-Love, Ingebrigt Haker-Flaten) - 2009, FLAC (image+.cue), lossless

(Avant Garde, Modern Free Jazz) The Thing with Otomo Yoshihide - Shinjuku Crawl (Mats Gustafsson, Paal Nilssen-Love, Ingebrigt Haker-Flaten) - 2009, FLAC (image+.cue), lossless
Треклист:
The Thing with Otomo Yoshihide - Shinjuku Crawl (Mats Gustafsson, Paal Nilssen-Love, Ingebrigt Haker-Flaten)
Жанр: Avant Garde, Modern Free Jazz
Год выпуска диска: 2009
Производитель диска: Norway (SmalltownSuperJazzz)
Аудио кодек: FLAC
Тип рипа: image+.cue
Битрейт аудио: lossless
Продолжительность: 66.35
Трэклист:
1. Shinjuku Crawl, first attempt (15.19)
2. Shinjuku Crawl, second attempt (9.47)
3. Shinjuku Crawl, third attempt (15.56)
4. Uramado (thank you Mr. Fukuoka) (5.02)
5. Dori Dugout, part 1 (7.23)
6. Dori Dugout, part 2 (13.09)
Доп. информация: Recorded live at Pit Inn, Tokyo, by Jim O'Rourke on October 2nd, 2007
Produced by The Thing and Otomo Yoshihide, Co-Produced by Joakim Haugland
Mats Gustafsson - slide, alto and baritone saxophones
Otomo Yoshihide - guitar
Ingebrigt Haker-Flaten - bass
Paal Nilssen-Love - drums
рип собственный
 
eac log
Exact Audio Copy V0.99 prebeta 5 from 4. May 2009
EAC extraction logfile from 7. June 2010, 21:38
The Thing with Otomo Yoshihide / Shinjuku Crawl
Used drive : TSSTcorpCDDVDW TS-L633C Adapter: 0 ID: 1
Read mode : Secure
Utilize accurate stream : Yes
Defeat audio cache : Yes
Make use of C2 pointers : No
Read offset correction : 6
Overread into Lead-In and Lead-Out : No
Fill up missing offset samples with silence : Yes
Delete leading and trailing silent blocks : No
Null samples used in CRC calculations : Yes
Used interface : Native Win32 interface for Win NT & 2000
Used output format : User Defined Encoder
Selected bitrate : 768 kBit/s
Quality : High
Add ID3 tag : No
Command line compressor : C:\Program Files (x86)\Exact Audio Copy\Flac\flac.exe
Additional command line options : -8 -V %s
TOC of the extracted CD
Track | Start | Length | Start sector | End sector
---------------------------------------------------------
1 | 0:00.00 | 15:18.61 | 0 | 68910
2 | 15:18.61 | 9:47.21 | 68911 | 112956
3 | 25:06.07 | 15:56.20 | 112957 | 184676
4 | 41:02.27 | 5:01.48 | 184677 | 207299
5 | 46:04.00 | 7:22.40 | 207300 | 240489
6 | 53:26.40 | 13:09.28 | 240490 | 299692
Range status and errors
Selected range
Filename C:\CDs\The Thing with Otomo Yoshihide - Shinjuku Crawl\The Thing with Otomo Yoshihide - Shinjuku Crawl.wav
Peak level 96.5 %
Range quality 100.0 %
Copy CRC 2B52560E
Copy OK
No errors occurred
AccurateRip summary
Track 1 accurately ripped (confidence 1) [692DB814]
Track 2 accurately ripped (confidence 1) [0B4F71A8]
Track 3 accurately ripped (confidence 1) [62D6D19C]
Track 4 accurately ripped (confidence 1) [B9DF92BD]
Track 5 accurately ripped (confidence 1) [3B70D4BA]
Track 6 accurately ripped (confidence 1) [8E23FC7B]
All tracks accurately ripped
End of status report
 
cue
REM GENRE Jazz
REM DATE 2007
REM DISCID 4D0F9B06
REM COMMENT "ExactAudioCopy v0.99pb5"
PERFORMER "The Thing with Otomo Yoshihide"
TITLE "Shinjuku Crawl"
FILE "The Thing with Otomo Yoshihide - Shinjuku Crawl.flac" WAVE
TRACK 01 AUDIO
TITLE "Shinjuku Crawl, first attebmpt"
PERFORMER "The Thing with Otomo Yoshihide"
INDEX 01 00:00:00
TRACK 02 AUDIO
TITLE "Shinjuku Crawl, second attempt"
PERFORMER "The Thing with Otomo Yoshihide"
INDEX 01 15:18:61
TRACK 03 AUDIO
TITLE "Shinjuku Crawl, third attempt"
PERFORMER "The Thing with Otomo Yoshihide"
INDEX 01 25:06:07
TRACK 04 AUDIO
TITLE "Uramado (thnk you Mr. Fukuoka)"
PERFORMER "The Thing with Otomo Yoshihide"
INDEX 01 41:02:27
TRACK 05 AUDIO
TITLE "Dori Dugout, part 1"
PERFORMER "The Thing with Otomo Yoshihide"
INDEX 01 46:04:00
TRACK 06 AUDIO
TITLE "Dori Dugout, part 2"
PERFORMER "The Thing with Otomo Yoshihide"
INDEX 01 53:26:40
напоминаю, что на трекере также выложен бутлег с записью совместного выступления The Thing, Otomo Yoshihide и Sakara Akita в рамках того же тура - 9 сентября
http://rutracker.org/forum/viewtopic.php?t=2892267
По всем вопросам пишите личное сообщение пользователю M0p94ok.
23:35
144
Нет комментариев. Ваш будет первым!