Вы используете незарегистрированную версию компонента "Вкладки"!

Поиск

(Avant Garde, Modern Creative, Tzadik New Japan) Yamamoto Seiichi - Nu Frequency - 2003, FLAC (image+.cue), lossless

(Avant Garde, Modern Creative, Tzadik New Japan) Yamamoto Seiichi - Nu Frequency - 2003, FLAC (image+.cue), lossless
Треклист:
Yamamoto Seiichi - Nu Frequency
Жанр: Avant Garde, Modern Creative, Tzadik New Japan
Год выпуска диска: 2003
Производитель диска: USA (Tzadik)
Аудио кодек: FLAC
Тип рипа: image+.cue
Битрейт аудио: lossless
Трэклист:
1. Convergence
2. Acceleration
3. Seed
4. Hopi
5. Glorious Farm
6. No Side
7. Yarn
8. Movin'
Доп. информация: Personnel:
China: Drums, Percussion
Yamamoto Seiichi: Synthesizer, Guitar, Bass, Drums, Percussion
 
eac log
Exact Audio Copy V0.99 prebeta 4 from 23. January 2008
Отчёт EAC об извлечении, выполненном 12. апреля 2009, 20:08
Yamamoto Seiichi / Nu Frequency
Дисковод: Optiarc DVD RW AD-7170A Adapter: 0 ID: 1
Режим чтения : Достоверность
Использование точного потока : Да
Отключение кэша аудио : Да
Использование указателей C2 : Нет
Коррекция смещения при чтении : 48
Способность читать области Lead-in и Lead-out : Нет
Заполнение пропущенных сэмплов тишиной : Да
Удаление блоков с тишиной в начале и конце : Нет
При вычислениях CRC использовались нулевые сэмплы : Да
Интерфейс : Установленный внешний ASPI-интерфейс
Выходной формат : Пользовательский кодировщик
Выбранный битрейт : 768 kBit/s
Качество : Высокий
Добавление ID3-тэга : Нет
Утилита сжатия : C:\Program Files (x86)\Exact Audio Copy\FLAC\FLAC.EXE
Дополнительные параметры : -6 -V -T "ARTIST=%a" -T "TITLE=%t" -T "ALBUM=%g" -T "DATE=%y" -T "TRACKNUMBER=%n" -T "GENRE=%m" -T "COMMENT=%e" %s -o %d
TOC извлечённого CD
Трек | Старт | Длительность | Начальный сектор | Конечный сектор
---------------------------------------------------------------------
1 | 0:00.00 | 0:38.67 | 0 | 2916
2 | 0:38.67 | 9:51.17 | 2917 | 47258
3 | 10:30.09 | 4:47.02 | 47259 | 68785
4 | 15:17.11 | 4:04.11 | 68786 | 87096
5 | 19:21.22 | 6:11.22 | 87097 | 114943
6 | 25:32.44 | 6:56.43 | 114944 | 146186
7 | 32:29.12 | 5:58.44 | 146187 | 173080
8 | 38:27.56 | 8:21.56 | 173081 | 210711
Характеристики диапазона извлечения и сообщения об ошибках
Выбранный диапазон
Имя файла C:\Users\Роман\Documents\Yamamoto Seiichi - Nu Frequency.wav
Пиковый уровень 98.8 %
Качество диапазона 100.0 %
CRC копии 90430819
Копирование... OK
Ошибок не произошло
AccurateRip: сводка
Трек 1 нет в базе данных
Трек 2 нет в базе данных
Трек 3 нет в базе данных
Трек 4 нет в базе данных
Трек 5 нет в базе данных
Трек 6 нет в базе данных
Трек 7 нет в базе данных
Трек 8 нет в базе данных
Ни одного трека нет в базе AccurateRip
Конец отчёта
Any questions -> support@pro-jazz.com. По всем вопросам пишите -> support@pro-jazz.com
09:57
157
Нет комментариев. Ваш будет первым!