Вы используете незарегистрированную версию компонента "Вкладки"!

Поиск

(Avant-Garde / Modern Creative / Progressive Big Band) Fight the Big Bull - All Is Gladness in The Kingdom (feat. Steven Bernstein) - 2010, FLAC (image+.cue), lossless

Треклист:
Fight the Big Bull - All Is Gladness in The Kingdom

Жанр: Avant-Garde / Modern Creative / Progressive Big Band
Год выпуска диска: 2010
Производитель диска: Clean Feed CF169; Portugal
Аудио кодек: FLAC
Тип рипа: image+.cue
Битрейт аудио: lossless
Продолжительность: 11:16:20
Jason Scott: tenor and alto saxophone, clarinet
J.C. Kuhl: tenor saxophone, clarinet
John Lilley: tenor saxophone
Steven Bernstein: trumpet, slide trumpet
Bob Miller: trumpet
Reggie Pace: trombone
Bryan Hooten: trombone
Matt White: guitar
Cameron Ralston: bass
Brian Jones: percussion
Pinson Chanselle: trap kit
Eddie Prendergast: electric bass (7)
1. Mobile Tigers
2. Mothra
3. The Sacred Harp
4. Jemima Surrender
5. Gold Lions
6. All Is Gladness in The Kingdom
7. Eddie and Cameron Strike Back / Satchel Paige
8. Martin Denny
9. Rockers

 
Free Jazz Review
I am not a fan of big bands, even small big bands, yet there are some exceptions. Some of Charlie Haden's albums for instance, or Carla Bley's. And this one : Fight The Big Bull. The Band started with an excellent, but all too short "Dying Will Be Easy", also on Clean Feed, two years ago. For their second album, Fight The Big Bull, led by guitarist Matt White, is a little more expanded. The band consists of Jason Scott, JC Kuhl and John Lilley on reeds, Bob Millier on trumpet, Reggie Pace and Bryan Hooten on trombone, Cameron Ralston on bass, Brian Jones and Pinson Chanselle on percussion. Eddie Prendergast joins on electric bass on one track. The featured guest star, composer and arranger is trumpeter Steven Bernstein, known from his work on Tzadik, the Sex Mob, MOT.
On the upside, Bernstein is a great slide trumpeter and arranger.
On the downside, it gives the album the same distant veneer of all Bernstein's work : great exercises in style and genre, with lots of attention to the entertainment factor and a demonstration of prowess that basically drowns feeling and authenticity.
The first album lacked some of the complexity of this one, but it was so heart-rending, authentic and majestic, full of dark drama, tragedy and deep-felt anger, whereas here, the element of distant playfulness is introduced, and it reduces the listening experience to something more middle-of-the-road. The band is still great, the playing good, but the end result is less compelling. I wish they had continued their original concept. ~ Free Jazz Blog
 
EAC Report
Exact Audio Copy V0.99 prebeta 5 from 4. May 2009
EAC extraction logfile from 6. April 2010, 22:25
Fight the Big Bull / All Is Gladness in The Kingdom
Used drive : hp DVD-RAM GH40L Adapter: 0 ID: 1
Read mode : Secure
Utilize accurate stream : Yes
Defeat audio cache : Yes
Make use of C2 pointers : No
Read offset correction : 667
Overread into Lead-In and Lead-Out : No
Fill up missing offset samples with silence : Yes
Delete leading and trailing silent blocks : No
Null samples used in CRC calculations : Yes
Used interface : Installed external ASPI interface
Used output format : User Defined Encoder
Selected bitrate : 1024 kBit/s
Quality : High
Add ID3 tag : No
Command line compressor : C:\Program Files\Exact Audio Copy\Flac\flac.exe
Additional command line options : -8 -V -T "ARTIST=%a" -T "TITLE=%t" -T "ALBUM=%g" -T "DATE=%y" -T "TRACKNUMBER=%n" -T "GENRE=%m" -T "COMMENT=EAC FLAC -8" %s
TOC of the extracted CD
Track | Start | Length | Start sector | End sector
---------------------------------------------------------
1 | 0:00.00 | 9:32.40 | 0 | 42939
2 | 9:32.40 | 9:35.62 | 42940 | 86126
3 | 19:08.27 | 5:41.30 | 86127 | 111731
4 | 24:49.57 | 7:09.05 | 111732 | 143911
5 | 31:58.62 | 7:32.03 | 143912 | 177814
6 | 39:30.65 | 10:56.10 | 177815 | 227024
7 | 50:27.00 | 9:17.65 | 227025 | 268864
8 | 59:44.65 | 8:07.22 | 268865 | 305411
9 | 67:52.12 | 8:27.73 | 305412 | 343509
Range status and errors
Selected range
Filename C:\Users\Igor\Music\eac\Fight the Big Bull - All Is Gladness in The Kingdom.wav
Peak level 100.0 %
Range quality 100.0 %
Test CRC 3DDE1E36
Copy CRC 3DDE1E36
Copy OK
No errors occurred
AccurateRip summary
Track 1 not present in database
Track 2 not present in database
Track 3 not present in database
Track 4 not present in database
Track 5 not present in database
Track 6 not present in database
Track 7 not present in database
Track 8 not present in database
Track 9 not present in database
None of the tracks are present in the AccurateRip database
End of status report

рип собственный
По всем вопросам пишите личное сообщение пользователю M0p94ok.
21:23
206
Нет комментариев. Ваш будет первым!