Вы используете незарегистрированную версию компонента "Вкладки"!

Поиск

(Avant-Garde / Modern Creative) Jorrit Dijkstra - Pillow Circles - 2010, FLAC (image+.cue), lossless

(Avant-Garde / Modern Creative) Jorrit Dijkstra - Pillow Circles - 2010, FLAC (image+.cue), lossless
Треклист:
Jorrit Dijkstra - Pillow Circles

Жанр: Avant-Garde / Modern Creative
Год выпуска диска: 2010
Производитель диска: Clean Feed CF166; Portugal
Аудио кодек: FLAC
Тип рипа: image+.cue
Битрейт аудио: lossless
Продолжительность: 1:02:00
Jorrit Dijkstra: alto saxophone, lyricon, analog synth, crackle box
Tony Malaby: tenor and soprano saxophones
Jeb Bishop: trombone
Oene van Geel: viola
Paul Pallesen: guitar, banjo
Raphael Vanoli: guitar
Jason Roebke: bass, crackle box
Frank Rosaly: drums, percussion, crackle box
1. Pillow Circles 34
2. Pillow Circles 41
3. Pillow Circles 18
4. Pillow Circles 55
5. Pillow Circles 65
6. Pillow Circles 88
7. Pillow Circles 19
8. Pillow Circles 10
9. Pillow Circles 23
Recorded on July 12, 2009 at PowerSound
 
Clean Feed
This project was a composition commission from the North Sea Jazz Festival 2009 and Muziek Centrum Nederland. It was made possible through grants from the Netherland-America Foundation, Muziek Centrum Nederland and Fonds voor de Scheppende Toonkunst Lingering melodies, dreamy abstractions, and clever instrumentations characterize the music of Jorrit Dijkstra. Lingering melodies, dreamy abstractions, and clever instrumentations characterize the music of Jorrit Dijkstra. In his new suite of compositions "Pillow Circles", he matches four American musicians from the New York and the Chicago scenes, Tony Malaby, Jeb Bishop, Jason Roebke, and Frank Rosaly, with fellow Dutchmen Oene van Geel, Paul Pallesen, and Raphael Vanoli, to create a mesmerizing sound world full of extremes in texture and dynamics. On this CD, free jazz meets experimental rock and electronica, with tributes to improvisers George Lewis and Fred Frith, Dutch electronic musician Michel Waisvisz, obscure 1950's alto player Ernie Henry, and (don't be surprised) Radiohead's Jonny Greenwood. The electric guitar plays a prominent role (there are two in action), as well as the sound of some 1970s analog electronics like the Lyricon (a wind synthesizer), and the Crackle Box (Waisvisz' lo-fi invention). And there's the stratospheric blowing section, with saxophones and trombone - you can't miss this rare and astonishing encounter between Dijkstra, Malaby, and Bishop. Undoubtedly, a must have, must listen. ~ Clean Feed
 
EAC Report
Exact Audio Copy V0.99 prebeta 4 from 23. January 2008
EAC extraction logfile from 3. August 2010, 21:42
Jorrit Djikstra / Pillow Circles
Used drive : TSSTcorpCD/DVDW SH-S182M Adapter: 2 ID: 1
Read mode : Secure
Utilize accurate stream : Yes
Defeat audio cache : Yes
Make use of C2 pointers : No
Read offset correction : 6
Overread into Lead-In and Lead-Out : No
Fill up missing offset samples with silence : Yes
Delete leading and trailing silent blocks : No
Null samples used in CRC calculations : Yes
Used interface : Installed external ASPI interface
Used output format : User Defined Encoder
Selected bitrate : 1024 kBit/s
Quality : High
Add ID3 tag : No
Command line compressor : C:\Program Files\Exact Audio Copy\Flac\flac.exe
Additional command line options : -6 -V -T "ARTIST=%a" -T "TITLE=%t" -T "ALBUM=%g" -T "DATE=%y" -T "TRACKNUMBER=%n" -T "GENRE=%m" -T "COMMENT=EAC FLAC -6" %s
TOC of the extracted CD
Track | Start | Length | Start sector | End sector
---------------------------------------------------------
1 | 0:00.00 | 6:25.57 | 0 | 28931
2 | 6:25.57 | 7:15.68 | 28932 | 61624
3 | 13:41.50 | 11:12.54 | 61625 | 112078
4 | 24:54.29 | 3:33.28 | 112079 | 128081
5 | 28:27.57 | 7:45.46 | 128082 | 163002
6 | 36:13.28 | 7:34.07 | 163003 | 197059
7 | 43:47.35 | 7:28.36 | 197060 | 230695
8 | 51:15.71 | 4:04.12 | 230696 | 249007
9 | 55:20.08 | 6:40.19 | 249008 | 279026
Range status and errors
Selected range
Filename C:\Users\Igor\Music\eac\Jorrit Djikstra - Pillow Circles.wav
Peak level 98.8 %
Range quality 100.0 %
Test CRC 35371DF7
Copy CRC 35371DF7
Copy OK
No errors occurred
AccurateRip summary
Track 1 not present in database
Track 2 not present in database
Track 3 not present in database
Track 4 not present in database
Track 5 not present in database
Track 6 not present in database
Track 7 not present in database
Track 8 not present in database
Track 9 not present in database
None of the tracks are present in the AccurateRip database
End of status report

рип собственный
Any questions -> support@pro-jazz.com. По всем вопросам пишите -> support@pro-jazz.com
02:53
127
Нет комментариев. Ваш будет первым!