Поиск

(Avant Garde, Modern Creative) Joane Hetu - Seule dans les chants - 2000, FLAC (image+.cue), lossless

(Avant Garde, Modern Creative) Joane Hetu - Seule dans les chants - 2000, FLAC (image+.cue), lossless
Треклист:
Joane Hetu - Seule dans les chants
Жанр: Avant Garde, Modern Creative
Год выпуска диска: 2000
Производитель диска: France (Ambiances Magnetiques)
Аудио кодек: FLAC
Тип рипа: image+.cue
Битрейт аудио: lossless
Продолжительность: 47.51
Трэклист:
1 Chant de plainte
2 6 chants de bouche
3 Cris dans les champs
4 Chants portuaires
5 7 chants de bouche
6 Chants de bêtes
7 Chants de brume
8 Chants de la "buzzée"
Доп. информация: Joane Hetu : saxophone alto, voix
рип собственный с родного диска.
 
eac log
Exact Audio Copy V0.99 prebeta 5 from 4. May 2009
EAC extraction logfile from 26. March 2010, 16:42
Joane Hetu / Seule dans les chants
Used drive : TSSTcorpCDDVDW TS-L633C Adapter: 0 ID: 1
Read mode : Secure
Utilize accurate stream : Yes
Defeat audio cache : Yes
Make use of C2 pointers : No
Read offset correction : 6
Overread into Lead-In and Lead-Out : No
Fill up missing offset samples with silence : Yes
Delete leading and trailing silent blocks : No
Null samples used in CRC calculations : Yes
Used interface : Native Win32 interface for Win NT & 2000
Used output format : User Defined Encoder
Selected bitrate : 768 kBit/s
Quality : High
Add ID3 tag : No
Command line compressor : C:\Program Files (x86)\Exact Audio Copy\Flac\flac.exe
Additional command line options : -8 -V %s
TOC of the extracted CD
Track | Start | Length | Start sector | End sector
---------------------------------------------------------
1 | 0:00.00 | 3:15.15 | 0 | 14639
2 | 3:15.15 | 5:44.67 | 14640 | 40506
3 | 9:00.07 | 7:46.43 | 40507 | 75499
4 | 16:46.50 | 2:36.65 | 75500 | 87264
5 | 19:23.40 | 5:43.27 | 87265 | 113016
6 | 25:06.67 | 3:54.38 | 113017 | 130604
7 | 29:01.30 | 10:38.07 | 130605 | 178461
8 | 39:39.37 | 8:11.60 | 178462 | 215346
Range status and errors
Selected range
Filename C:\CDs\Joane Hetu - Seule dans les chants\Joane Hetu - Seule dans les chants.wav
Peak level 99.9 %
Range quality 100.0 %
Copy CRC 63A1972B
Copy OK
No errors occurred
AccurateRip summary
Track 1 not present in database
Track 2 not present in database
Track 3 not present in database
Track 4 not present in database
Track 5 not present in database
Track 6 not present in database
Track 7 not present in database
Track 8 not present in database
None of the tracks are present in the AccurateRip database
End of status report
По всем вопросам пишите личное сообщение пользователю M0p94ok.
20:16
249
Нет комментариев. Ваш будет первым!