Вы используете незарегистрированную версию компонента "Вкладки"!

Поиск

(Avant Garde, Modern Creative, Experimental) Les Poules (Danielle Palardy Roger , Diane Labrosse , Joane Hetu) - 2 albums - 1986, FLAC (image+.cue), lossless

(Avant Garde, Modern Creative, Experimental) Les Poules (Danielle Palardy Roger , Diane Labrosse , Joane Hetu) - 2 albums - 1986, FLAC (image+.cue), lossless
Треклист:
Les Poules (Danielle Palardy Roger , Diane Labrosse , Joane Hetu) - 2 albums
Жанр: Avant Garde, Modern Creative, Experimental
Год выпуска диска: 1986
Производитель диска: Canada (Ambiances Magnétiques)
Аудио кодек: FLAC
Тип рипа: image+.cue
Битрейт аудио: lossless
Продолжительность: 41.18 + 49.31
Трэклист:
 
Les Poules - Les Contes De L'Amère Loi, 1986
A1 Les Siamoises 3:02
A2 Chanson Du Pain 1:45
A3 En Criant Su'l Perron 3:00
A4 Human Pinball 3:46
A5 Petites Poules 0:30
A6 Au Mur La Chair 3:56
A7 Soliloque Pour Simone 4:28
B1 J’Habite À Montréal 3:34
B2 Contes De L'Amère Loi 2:35
B3 Attention!!! Travaux 4:19
B4 Faust Et Son Pain 5:18
B5 Ode Au Parachute 4:12
Composed By, Lyrics By, Arranged By, Producer - Les Poules
Drums, Electronic Drums [Rx 11], Synthesizer [Poly 6], Voice - Danielle Palardy Roger
Recorded By, Mixed By - David Findlay
Saxophone [Alto], Synthesizer [Cs-5], Voice - Joane Hétu
Synthesizer [Cz-5000, Poly 6, Dx 7], Voice - Diane Labrosse
 
Les Poules - Prairie Orange, 2002
1 Où Est L’Est? 6:09
2 Les Glaneuses 11:16
3 Pluie Sur Les Fougères 3:25
4 Tempête Bleue 5:05
5 L’Étroit Moustiquaire 2:54
6 Porte [Ouverte] 5:46
7 Chaud ~ Froid 3:40
8 L’Appel De La Marmotte 1:49
9 Prairie Orange 9:18
Percussion, Voice - Danielle Palardy Roger
Producer - Danielle Palardy Roger , Diane Labrosse , Joane Hétu
Recorded By, Mixed By - Robert Langlois
Sampler, Voice - Diane Labrosse
Saxophone [Alto], Voice, Photography - Joane Hétu
Доп. информация: рипы собственные
 
eac log for Les Contes De L'Amère Loi
Exact Audio Copy V0.99 prebeta 5 from 4. May 2009
EAC extraction logfile from 17. May 2010, 17:27
Les Poules / Les Contentes de L'amиre Loi
Used drive : TSSTcorpCDDVDW TS-L633C Adapter: 0 ID: 1
Read mode : Secure
Utilize accurate stream : Yes
Defeat audio cache : Yes
Make use of C2 pointers : No
Read offset correction : 6
Overread into Lead-In and Lead-Out : No
Fill up missing offset samples with silence : Yes
Delete leading and trailing silent blocks : No
Null samples used in CRC calculations : Yes
Used interface : Native Win32 interface for Win NT & 2000
Used output format : User Defined Encoder
Selected bitrate : 768 kBit/s
Quality : High
Add ID3 tag : No
Command line compressor : C:\Program Files (x86)\Exact Audio Copy\Flac\flac.exe
Additional command line options : -8 -V %s
TOC of the extracted CD
Track | Start | Length | Start sector | End sector
---------------------------------------------------------
1 | 0:00.00 | 3:08.35 | 0 | 14134
2 | 3:08.35 | 1:48.10 | 14135 | 22244
3 | 4:56.45 | 3:05.47 | 22245 | 36166
4 | 8:02.17 | 4:26.23 | 36167 | 56139
5 | 12:28.40 | 4:01.30 | 56140 | 74244
6 | 16:29.70 | 4:33.72 | 74245 | 94791
7 | 21:03.67 | 3:38.30 | 94792 | 111171
8 | 24:42.22 | 2:37.68 | 111172 | 123014
9 | 27:20.15 | 4:22.17 | 123015 | 142681
10 | 31:42.32 | 5:20.08 | 142682 | 166689
11 | 37:02.40 | 4:15.05 | 166690 | 185819
Range status and errors
Selected range
Filename C:\CDs\Les Poules\Les Poules - Les Contentes de L'amиre Loi.wav
Peak level 100.0 %
Range quality 100.0 %
Copy CRC E15CFAC9
Copy OK
No errors occurred
AccurateRip summary
Track 1 not present in database
Track 2 not present in database
Track 3 not present in database
Track 4 not present in database
Track 5 not present in database
Track 6 not present in database
Track 7 not present in database
Track 8 not present in database
Track 9 not present in database
Track 10 not present in database
Track 11 not present in database
None of the tracks are present in the AccurateRip database
End of status report
 
cue for Les Contentes de L'amиre Loi
REM GENRE Jazz
REM DATE 2001
REM DISCID 9209AD0B
REM COMMENT "ExactAudioCopy v0.99pb5"
PERFORMER "Les Poules"
TITLE "Les Contentes de L'amиre Loi"
FILE "Les Poules - Les Contentes de L'amиre Loi.flac" WAVE
TRACK 01 AUDIO
TITLE "Les siamoises"
PERFORMER "Les Poules"
INDEX 01 00:00:00
TRACK 02 AUDIO
TITLE "Chanson du pain"
PERFORMER "Les Poules"
INDEX 00 03:04:45
INDEX 01 03:08:35
TRACK 03 AUDIO
TITLE "En criant su 'I' perron"
PERFORMER "Les Poules"
INDEX 00 04:54:65
INDEX 01 04:56:45
TRACK 04 AUDIO
TITLE "Human Pinball"
PERFORMER "Les Poules"
INDEX 00 08:00:70
INDEX 01 08:02:17
INDEX 02 11:52:60
TRACK 05 AUDIO
TITLE "Au mur la chair"
PERFORMER "Les Poules"
INDEX 00 12:25:17
INDEX 01 12:28:40
TRACK 06 AUDIO
TITLE "Soliloque pour Simone"
PERFORMER "Les Poules"
INDEX 00 16:28:67
INDEX 01 16:29:70
TRACK 07 AUDIO
TITLE "J'habite а Montrйal"
PERFORMER "Les Poules"
INDEX 00 21:00:35
INDEX 01 21:03:67
TRACK 08 AUDIO
TITLE "Contentes de L'amиre Loi"
PERFORMER "Les Poules"
INDEX 00 24:38:50
INDEX 01 24:42:22
TRACK 09 AUDIO
TITLE "Attention !!! travaux"
PERFORMER "Les Poules"
INDEX 01 27:20:15
TRACK 10 AUDIO
TITLE "Faust et son pain"
PERFORMER "Les Poules"
INDEX 00 31:39:57
INDEX 01 31:42:32
TRACK 11 AUDIO
TITLE "Ode au parachute"
PERFORMER "Les Poules"
INDEX 00 37:00:67
INDEX 01 37:02:40
 
eac log for Prairie Orange
Exact Audio Copy V0.99 prebeta 5 from 4. May 2009
EAC extraction logfile from 17. May 2010, 18:30
Les Poules / Prairie Orange
Used drive : TSSTcorpCDDVDW TS-L633C Adapter: 0 ID: 1
Read mode : Secure
Utilize accurate stream : Yes
Defeat audio cache : Yes
Make use of C2 pointers : No
Read offset correction : 6
Overread into Lead-In and Lead-Out : No
Fill up missing offset samples with silence : Yes
Delete leading and trailing silent blocks : No
Null samples used in CRC calculations : Yes
Used interface : Native Win32 interface for Win NT & 2000
Used output format : User Defined Encoder
Selected bitrate : 768 kBit/s
Quality : High
Add ID3 tag : No
Command line compressor : C:\Program Files (x86)\Exact Audio Copy\Flac\flac.exe
Additional command line options : -8 -V %s
TOC of the extracted CD
Track | Start | Length | Start sector | End sector
---------------------------------------------------------
1 | 0:00.00 | 6:10.10 | 0 | 27759
2 | 6:10.10 | 11:16.40 | 27760 | 78499
3 | 17:26.50 | 3:24.07 | 78500 | 93806
4 | 20:50.57 | 5:05.03 | 93807 | 116684
5 | 25:55.60 | 2:54.42 | 116685 | 129776
6 | 28:50.27 | 5:45.60 | 129777 | 155711
7 | 34:36.12 | 3:39.25 | 155712 | 172161
8 | 38:15.37 | 1:49.13 | 172162 | 180349
9 | 40:04.50 | 9:26.20 | 180350 | 222819
Range status and errors
Selected range
Filename C:\CDs\Les Poules\Les Poules - Prairie Orange.wav
Peak level 99.8 %
Range quality 100.0 %
Copy CRC 728043ED
Copy OK
No errors occurred
AccurateRip summary
Track 1 not present in database
Track 2 not present in database
Track 3 not present in database
Track 4 not present in database
Track 5 not present in database
Track 6 not present in database
Track 7 not present in database
Track 8 not present in database
Track 9 not present in database
None of the tracks are present in the AccurateRip database
End of status report
 
cue for Prairie Orange
REM GENRE Electronic
REM DATE 2002
REM DISCID 750B9A09
REM COMMENT "ExactAudioCopy v0.99pb5"
PERFORMER "Les Poules"
TITLE "Prairie Orange"
FILE "Les Poules - Prairie Orange.flac" WAVE
TRACK 01 AUDIO
TITLE "Oщ est l'est "
PERFORMER "Les Poules"
INDEX 01 00:00:00
TRACK 02 AUDIO
TITLE "Les Glaneuse"
PERFORMER "Les Poules"
INDEX 00 06:05:65
INDEX 01 06:10:10
TRACK 03 AUDIO
TITLE "Pluie sure les Fougиres"
PERFORMER "Les Poules"
INDEX 00 17:23:42
INDEX 01 17:26:50
TRACK 04 AUDIO
TITLE "Tempкte Bleue"
PERFORMER "Les Poules"
INDEX 00 20:48:32
INDEX 01 20:50:57
TRACK 05 AUDIO
TITLE "L'йtroit Moustiquaire"
PERFORMER "Les Poules"
INDEX 00 25:50:65
INDEX 01 25:55:60
TRACK 06 AUDIO
TITLE "Porte [ouverte]"
PERFORMER "Les Poules"
INDEX 00 28:46:55
INDEX 01 28:50:27
TRACK 07 AUDIO
TITLE "Chaude~froide"
PERFORMER "Les Poules"
INDEX 01 34:36:12
TRACK 08 AUDIO
TITLE "L'appel de la marmotte"
PERFORMER "Les Poules"
INDEX 00 38:12:00
INDEX 01 38:15:37
TRACK 09 AUDIO
TITLE "Prairie orange"
PERFORMER "Les Poules"
INDEX 01 40:04:50
Any questions -> support@pro-jazz.com. По всем вопросам пишите -> support@pro-jazz.com
23:02
144
Нет комментариев. Ваш будет первым!