Вы используете незарегистрированную версию компонента "Вкладки"!

Поиск

(Avant-Garde / Modern Creative) Ellery Eskelin - Quiet Music - 2006, FLAC (image+.cue), lossless

(Avant-Garde / Modern Creative) Ellery Eskelin - Quiet Music - 2006, FLAC (image+.cue), lossless
Треклист:
Ellery Eskelin - Quiet Music
Жанр: Avant-Garde / Modern Creative
Год выпуска диска: 2006
Производитель диска: USA (Prime Source CD 4010)
Аудио кодек: FLAC
Тип рипа: image+.cue
Битрейт аудио: lossless
Продолжительность: 1:58:40
Ellery Eskelin tenor saxophone
Jessica Constable voice
Andrea Parkins piano, organ, accordion, sampler
Jim Black drums, percussion
Philippe Gelda piano, organ, vocal
Disc 1
1. Coordinated Universal Time
2. I Should Have Known
3. 48 A & B
4. Read My Mind
5. Instant Counterpoint
6. How Do I Know
7. Quiet Music
Disc 2
1. Split the Difference
2. Cuarenta y Neueve
3. The Curve
4. Let's Change the Subject
5. Like I Say
6. La Berceuse d'Angela
7. Tomorrow is a New Day
Recorded on May 10th and 11th, 2006 at Studios La Buissonne, Pernes de Fontaines, France
 
EAC Report (Disc 1)
Exact Audio Copy V0.99 prebeta 5 from 4. May 2009
EAC extraction logfile from 29. November 2009, 11:58
Ellery Eskelin / Quiet Music (Disc 1)
Used drive : TSSTcorpCD/DVDW SH-S182M Adapter: 2 ID: 0
Read mode : Secure
Utilize accurate stream : Yes
Defeat audio cache : Yes
Make use of C2 pointers : No
Read offset correction : 6
Overread into Lead-In and Lead-Out : No
Fill up missing offset samples with silence : Yes
Delete leading and trailing silent blocks : No
Null samples used in CRC calculations : Yes
Used interface : Installed external ASPI interface
Used output format : User Defined Encoder
Selected bitrate : 1024 kBit/s
Quality : High
Add ID3 tag : No
Command line compressor : C:\Program Files\FLAC\flac.exe
Additional command line options : -6 -V -T "ARTIST=%a" -T "TITLE=%t" -T "ALBUM=%g" -T "DATE=%y" -T "TRACKNUMBER=%n" -T "GENRE=%m" -T "COMMENT=EAC FLAC -6" %s
TOC of the extracted CD
Track | Start | Length | Start sector | End sector
---------------------------------------------------------
1 | 0:00.00 | 11:28.15 | 0 | 51614
2 | 11:28.15 | 6:36.25 | 51615 | 81339
3 | 18:04.40 | 6:21.47 | 81340 | 109961
4 | 24:26.12 | 8:07.37 | 109962 | 146523
5 | 32:33.49 | 10:40.71 | 146524 | 194594
6 | 43:14.45 | 6:37.02 | 194595 | 224371
7 | 49:51.47 | 9:18.28 | 224372 | 266249
Range status and errors
Selected range
Filename C:\Ellery Eskelin - Quiet Music (Disc 1).wav
Peak level 99.7 %
Range quality 100.0 %
Test CRC 3D4102C9
Copy CRC 3D4102C9
Copy OK
No errors occurred
AccurateRip summary
Track 1 not present in database
Track 2 not present in database
Track 3 not present in database
Track 4 not present in database
Track 5 not present in database
Track 6 not present in database
Track 7 not present in database
None of the tracks are present in the AccurateRip database
End of status report
 
EAC Report (Disc 2)
Exact Audio Copy V0.99 prebeta 5 from 4. May 2009
EAC extraction logfile from 29. November 2009, 12:21
Ellery Eskelin / Quiet Music (Disc 2)
Used drive : TSSTcorpCD/DVDW SH-S182M Adapter: 2 ID: 0
Read mode : Secure
Utilize accurate stream : Yes
Defeat audio cache : Yes
Make use of C2 pointers : No
Read offset correction : 6
Overread into Lead-In and Lead-Out : No
Fill up missing offset samples with silence : Yes
Delete leading and trailing silent blocks : No
Null samples used in CRC calculations : Yes
Used interface : Installed external ASPI interface
Used output format : User Defined Encoder
Selected bitrate : 1024 kBit/s
Quality : High
Add ID3 tag : No
Command line compressor : C:\Program Files\FLAC\flac.exe
Additional command line options : -6 -V -T "ARTIST=%a" -T "TITLE=%t" -T "ALBUM=%g" -T "DATE=%y" -T "TRACKNUMBER=%n" -T "GENRE=%m" -T "COMMENT=EAC FLAC -6" %s
TOC of the extracted CD
Track | Start | Length | Start sector | End sector
---------------------------------------------------------
1 | 0:00.00 | 4:45.48 | 0 | 21422
2 | 4:45.48 | 5:23.10 | 21423 | 45657
3 | 10:08.58 | 12:36.42 | 45658 | 102399
4 | 22:45.25 | 4:00.70 | 102400 | 120469
5 | 26:46.20 | 5:37.01 | 120470 | 145745
6 | 32:23.21 | 6:27.60 | 145746 | 174830
7 | 38:51.06 | 20:39.68 | 174831 | 267823
Range status and errors
Selected range
Filename C:\Ellery Eskelin - Quiet Music (Disc 2).wav
Peak level 100.0 %
Range quality 100.0 %
Test CRC E94A6288
Copy CRC E94A6288
Copy OK
No errors occurred
AccurateRip summary
Track 1 not present in database
Track 2 not present in database
Track 3 not present in database
Track 4 not present in database
Track 5 not present in database
Track 6 not present in database
Track 7 not present in database
None of the tracks are present in the AccurateRip database
End of status report
По всем вопросам пишите личное сообщение пользователю M0p94ok.
17:10
140
Нет комментариев. Ваш будет первым!