Поиск

(Avant-Garde / Modern Composition / Tzadik) Mark Dresser - Marinade - 2000, FLAC (image+.cue), lossless

(Avant-Garde / Modern Composition / Tzadik) Mark Dresser - Marinade - 2000, FLAC (image+.cue), lossless
Треклист:
Mark Dresser - Marinade
Жанр: Avant-Garde / Modern Composition / Tzadik
Год выпуска диска: 2000
Производитель диска: USA (Tzadik)
Аудио кодек: FLAC
Тип рипа: image+.cue
Битрейт аудио: lossless
Продолжительность: 1:12:51
Mark Dresser contrabass
Gerry Hemingway drums, steel drums
David LeClair tuba
Denman Maroney piano
Mary Rowell violin
Regula Schneider clarinet
Skuli Sverrisson 5-string electric bass
Stefania Verita cello
Marcus Weiss alto sax
Matthias Ziegler contrabass flute
1. Ricochet
2. Air to Mir
3. Bundy
4. Spin X
5. One for BT
6. Althaus
7. Frammus
8. Maronade
9. Subtonium X
 
Tzadik Review
Nine new compositions pushing the boundaries of instrumental virtuosity. From the lyricism of Air to Mir, commissioned by the Library of Congress, the textures of Spin X for two basses and two percussionists, to the virtuosity of his own solo bass music and more, Marinade displays the full range of Mark Dresser's compositional vision. A nine year veteran of the Anthony Braxton Quartet and a vital member of the downtown scene, collaborating with Tim Berne, Diamanda Galas and many others, Mark Dresser has been a creative force in new music for over twenty years.
 
EAC Report
Exact Audio Copy V0.99 prebeta 4 from 23. January 2008
EAC extraction logfile from 24. October 2008, 21:50
Mark Dresser / Marinade
Used drive : TSSTcorpCD/DVDW SH-S182M Adapter: 2 ID: 0
Read mode : Secure
Utilize accurate stream : Yes
Defeat audio cache : Yes
Make use of C2 pointers : No
Read offset correction : 6
Overread into Lead-In and Lead-Out : No
Fill up missing offset samples with silence : Yes
Delete leading and trailing silent blocks : No
Null samples used in CRC calculations : Yes
Used interface : Installed external ASPI interface
Used output format : User Defined Encoder
Selected bitrate : 1024 kBit/s
Quality : High
Add ID3 tag : No
Command line compressor : C:\Program Files\Exact Audio Copy\FLAC\FLAC.EXE
Additional command line options : -6 -V -T "ARTIST=%a" -T "TITLE=%t" -T "ALBUM=%g" -T "DATE=%y" -T "TRACKNUMBER=%n" -T "GENRE=%m" -T "COMMENT=%e" %s -o %d
TOC of the extracted CD
Track | Start | Length | Start sector | End sector
---------------------------------------------------------
1 | 0:00.00 | 1:23.65 | 0 | 6289
2 | 1:23.65 | 16:34.47 | 6290 | 80886
3 | 17:58.37 | 1:57.35 | 80887 | 89696
4 | 19:55.72 | 7:26.65 | 89697 | 123211
5 | 27:22.62 | 3:03.65 | 123212 | 137001
6 | 30:26.52 | 18:01.15 | 137002 | 218091
7 | 48:27.67 | 3:40.68 | 218092 | 234659
8 | 52:08.60 | 9:55.52 | 234660 | 279336
9 | 62:04.37 | 10:46.32 | 279337 | 327818
Range status and errors
Selected range
Filename C:\z\Mark Dresser - Marinade.wav
Peak level 100.0 %
Range quality 99.9 %
Copy CRC CA5C6598
Copy OK
No errors occurred
AccurateRip summary
Track 1 not present in database
Track 2 not present in database
Track 3 not present in database
Track 4 not present in database
Track 5 not present in database
Track 6 not present in database
Track 7 not present in database
Track 8 not present in database
Track 9 not present in database
None of the tracks are present in the AccurateRip database
End of status report
Приватный:
Нет (DHT включён)
Размер:
336.72 Мб (353,081,207 байт) » файлов: 5
Участники:
0 раздают, 0 качают (0 участников всего)
Внешние участники:
3 раздают, 1 качают (4 участников всего) [ Обновить ]
No seeders - write a personal message to user M0p94ok. Нет сидеров - пишите личное сообщение пользователю M0p94ok.
05:11
59
Нет комментариев. Ваш будет первым!