Вы используете незарегистрированную версию компонента "Вкладки"!

Поиск

(Avant-Garde, Modern Composition) Elliott Sharp, Melvin Gibbs, KJ Grant, Dorit Chrysler - Tectonics - 1995, FLAC (tracks) lossless

Треклист:
Elliott Sharp, Melvin Gibbs, KJ Grant, Dorit Chrysler / Tectonics
Жанр: Avant-Garde, Modern Composition
Страна-производитель диска: Germany
Год издания диска: 1995
Издатель (лейбл): Atonal
Номер по каталогу: ACD 3019
Страна: US
Аудио кодек: FLAC (*.flac)
Тип рипа: tracks
Битрейт аудио: lossless
Продолжительность: 56:52
Источник (релизер): what.cd
Наличие сканов в содержимом раздачи: нет
Треклист:
1 Skram 5:46
2 Platelet 4:50
3 Frequenz 4:43
4 Kniesebein 4:14
5 Webfoot Quickstep 4:42
6 N-Gender 5:40
7 Newt Age 2:08
8 You-No 4:43
9 Waiting Room 7:53
10 Surface Tension 6:12
11 Scattershot 5:56
 
Лог создания рипа
Exact Audio Copy V0.99 prebeta 4 from 23. January 2008
EAC extraction logfile from 10. October 2008, 23:02
Elliot Sharp / Tectonics
Used drive : Optiarc DVD RW AD-7200A Adapter: 0 ID: 3
Read mode : Secure
Utilize accurate stream : Yes
Defeat audio cache : Yes
Make use of C2 pointers : No
Read offset correction : 48
Overread into Lead-In and Lead-Out : No
Fill up missing offset samples with silence : Yes
Delete leading and trailing silent blocks : No
Null samples used in CRC calculations : Yes
Used interface : Installed external ASPI interface
Gap handling : Appended to previous track
Used output format : User Defined Encoder
Selected bitrate : 640 kBit/s
Quality : High
Add ID3 tag : No
Command line compressor : C:\Program Files\Exact Audio Copy\flac.exe
Additional command line options : • -8 -A tukey(0.25) -A gauss(0.1875) -b 4096 -V -T "artist=%a" -T "title=%t" -T "album=%g" -T "date=%y" -T "tracknumber=%n" -T "genre=%m" %s --sector-align
TOC of the extracted CD
Track | Start | Length | Start sector | End sector
---------------------------------------------------------
1 | 0:00.00 | 5:46.42 | 0 | 25991
2 | 5:46.42 | 4:50.63 | 25992 | 47804
3 | 10:37.30 | 4:43.10 | 47805 | 69039
4 | 15:20.40 | 4:14.67 | 69040 | 88156
5 | 19:35.32 | 4:42.28 | 88157 | 109334
6 | 24:17.60 | 5:40.15 | 109335 | 134849
7 | 29:58.00 | 2:08.37 | 134850 | 144486
8 | 32:06.37 | 4:43.35 | 144487 | 165746
9 | 36:49.72 | 7:53.68 | 165747 | 201289
10 | 44:43.65 | 6:12.22 | 201290 | 229211
11 | 50:56.12 | 5:56.40 | 229212 | 255951
Track 1
Filename H:\Elliott Sharp - Tectonics\01 - Elliot Sharp - Skram .wav
Pre-gap length 0:00:02.00
Copy aborted
Track 2
Copy aborted
Track 3
Copy aborted
Track 4
Copy aborted
Track 5
Copy aborted
Track 6
Copy aborted
Track 7
Copy aborted
Track 8
Copy aborted
Track 9
Copy aborted
Track 10
Copy aborted
Track 11
Copy aborted
No tracks could be verified as accurate
There were errors
End of status report
------------------------------------------------------------
Exact Audio Copy V0.99 prebeta 4 from 23. January 2008
EAC extraction logfile from 10. October 2008, 23:53
Elliot Sharp / Tectonics
Used drive : Optiarc DVD RW AD-7200A Adapter: 0 ID: 3
Read mode : Secure
Utilize accurate stream : Yes
Defeat audio cache : Yes
Make use of C2 pointers : No
Read offset correction : 48
Overread into Lead-In and Lead-Out : No
Fill up missing offset samples with silence : Yes
Delete leading and trailing silent blocks : No
Null samples used in CRC calculations : Yes
Used interface : Installed external ASPI interface
Gap handling : Appended to previous track
Used output format : User Defined Encoder
Selected bitrate : 640 kBit/s
Quality : High
Add ID3 tag : No
Command line compressor : C:\Program Files\Exact Audio Copy\flac.exe
Additional command line options : • -8 -A tukey(0.25) -A gauss(0.1875) -b 4096 -V -T "artist=%a" -T "title=%t" -T "album=%g" -T "date=%y" -T "tracknumber=%n" -T "genre=%m" %s --sector-align
TOC of the extracted CD
Track | Start | Length | Start sector | End sector
---------------------------------------------------------
1 | 0:00.00 | 5:46.42 | 0 | 25991
2 | 5:46.42 | 4:50.63 | 25992 | 47804
3 | 10:37.30 | 4:43.10 | 47805 | 69039
4 | 15:20.40 | 4:14.67 | 69040 | 88156
5 | 19:35.32 | 4:42.28 | 88157 | 109334
6 | 24:17.60 | 5:40.15 | 109335 | 134849
7 | 29:58.00 | 2:08.37 | 134850 | 144486
8 | 32:06.37 | 4:43.35 | 144487 | 165746
9 | 36:49.72 | 7:53.68 | 165747 | 201289
10 | 44:43.65 | 6:12.22 | 201290 | 229211
11 | 50:56.12 | 5:56.40 | 229212 | 255951
Track 1
Filename H:\Elliott Sharp - Tectonics\01 - Elliot Sharp - Skram .wav
Pre-gap length 0:00:02.00
Peak level 98.0 %
Track quality 100.0 %
Test CRC B8889BBB
Copy CRC B8889BBB
Cannot be verified as accurate (confidence 1) [80FEBB92], AccurateRip returned [2ABA2C46]
Copy OK
Track 2
Filename H:\Elliott Sharp - Tectonics\02 - Elliot Sharp - Platelet .wav
Peak level 98.0 %
Track quality 100.0 %
Test CRC BB9E007F
Copy CRC BB9E007F
Cannot be verified as accurate (confidence 1) [E54F6DB9], AccurateRip returned [80BAB468]
Copy OK
Track 3
Filename H:\Elliott Sharp - Tectonics\03 - Elliot Sharp - Frequenz .wav
Peak level 98.0 %
Track quality 100.0 %
Test CRC 690DC1E3
Copy CRC 690DC1E3
Cannot be verified as accurate (confidence 1) [7DACF1AF], AccurateRip returned [CF328D6B]
Copy OK
Track 4
Filename H:\Elliott Sharp - Tectonics\04 - Elliot Sharp - Kniesebein .wav
Peak level 98.0 %
Track quality 100.0 %
Test CRC 2016EE2F
Copy CRC 2016EE2F
Cannot be verified as accurate (confidence 1) [DC50A5BD], AccurateRip returned [886B3DCC]
Copy OK
Track 5
Filename H:\Elliott Sharp - Tectonics\05 - Elliot Sharp - Webfoot Quickstep .wav
Peak level 98.0 %
Track quality 100.0 %
Test CRC 6003AB0E
Copy CRC 6003AB0E
Cannot be verified as accurate (confidence 1) [AF9908CA], AccurateRip returned [EBE0E340]
Copy OK
Track 6
Filename H:\Elliott Sharp - Tectonics\06 - Elliot Sharp - N-Gender .wav
Peak level 98.0 %
Track quality 100.0 %
Test CRC 0924A469
Copy CRC 0924A469
Cannot be verified as accurate (confidence 1) [277EF818], AccurateRip returned [FD136A7B]
Copy OK
Track 7
Filename H:\Elliott Sharp - Tectonics\07 - Elliot Sharp - Newt Age .wav
Peak level 98.0 %
Track quality 99.9 %
Test CRC 30305473
Copy CRC 30305473
Cannot be verified as accurate (confidence 1) [51AF19B2], AccurateRip returned [29DCAC80]
Copy OK
Track 8
Filename H:\Elliott Sharp - Tectonics\08 - Elliot Sharp - You-No .wav
Peak level 98.9 %
Track quality 100.0 %
Test CRC 2387784E
Copy CRC 2387784E
Cannot be verified as accurate (confidence 1) [E79BBD3D], AccurateRip returned [3AC877D5]
Copy OK
Track 9
Filename H:\Elliott Sharp - Tectonics\09 - Elliot Sharp - Waiting Room .wav
Peak level 98.0 %
Track quality 100.0 %
Test CRC 647059BD
Copy CRC 647059BD
Cannot be verified as accurate (confidence 1) [BAB3CF42], AccurateRip returned [8AA67491]
Copy OK
Track 10
Filename H:\Elliott Sharp - Tectonics\10 - Elliot Sharp - Surface Tension .wav
Peak level 98.1 %
Track quality 100.0 %
Test CRC 52AD5837
Copy CRC 52AD5837
Cannot be verified as accurate (confidence 1) [EA8DE5E8], AccurateRip returned [08BAE5C5]
Copy OK
Track 11
Filename H:\Elliott Sharp - Tectonics\11 - Elliot Sharp - Scattershot .wav
Peak level 98.0 %
Track quality 100.0 %
Test CRC D5A952AA
Copy CRC D5A952AA
Cannot be verified as accurate (confidence 1) [170CA7A2], AccurateRip returned [B75D9255]
Copy OK
No tracks could be verified as accurate
You may have a different pressing from the one(s) in the database
No errors occurred
End of status report
 
Лог проверки качества
d:\>d:\aucdtect -d/-m0 d:\zzz\*.wav
auCDtect: CD records authenticity detector, version 0.8.2
Copyright (c) 2004 Oleg Berngardt. All rights reserved.
Copyright (c) 2004 Alexander Djourik. All rights reserved.
------------------------------------------------------------
Processing file: [01. Skram.wav]
------------------------------------------------------------
This track looks like CDDA with probability 100%
------------------------------------------------------------
Processing file: [02. Platelet.wav]
------------------------------------------------------------
This track looks like CDDA with probability 100%
------------------------------------------------------------
Processing file: [03. Frequenz.wav]
------------------------------------------------------------
This track looks like CDDA with probability 100%
------------------------------------------------------------
Processing file: [04. Kniesebein.wav]
------------------------------------------------------------
This track looks like CDDA with probability 100%
------------------------------------------------------------
Processing file: [05. Webfoot Quickstep.wav]
------------------------------------------------------------
This track looks like CDDA with probability 100%
------------------------------------------------------------
Processing file: [06. N-Gender.wav]
------------------------------------------------------------
This track looks like CDDA with probability 100%
------------------------------------------------------------
Processing file: [07. Newt Age.wav]
------------------------------------------------------------
This track looks like CDDA with probability 100%
------------------------------------------------------------
Processing file: [08. You-No.wav]
------------------------------------------------------------
This track looks like CDDA with probability 100%
------------------------------------------------------------
Processing file: [09. Waiting Room.wav]
------------------------------------------------------------
This track looks like CDDA with probability 100%
------------------------------------------------------------
Processing file: [10. Surface Tension.wav]
------------------------------------------------------------
This track looks like CDDA with probability 100%
------------------------------------------------------------
Processing file: [11. Scattershot.wav]
------------------------------------------------------------
This track looks like CDDA with probability 100%
------------------------------------------------------------
Final Conclusion:
------------------------------------------------------------
These tracks looks like CDDA with probability 100%
 
Скриншот спектра частот
Доп. информация:
 
Album Info
Label:
Atonal Records
Catalog#:
ACD 3019
Format:
CD, Album
Country:
Germany
Released:
1995
 
Состав
Bass - Melvin Gibbs (tracks: 7, 9, 10)
Producer, Guitar, Saxophone, Other [Grooves, Processing, Buchla Thunder] - Elliott Sharp
Vocals - Dorit Chrysler (tracks: 4, 8) , KJ Grant (tracks: 1, 9)
По всем вопросам пишите личное сообщение пользователю M0p94ok.
05:31
218
Нет комментариев. Ваш будет первым!