Вы используете незарегистрированную версию компонента "Вкладки"!

Поиск

(Avant-Garde, Modern Composition) Elliott Sharp & Carbon - Tocsin - 1991, FLAC (tracks+.cue) lossless

Треклист:
Elliott Sharp & Carbon / Tocsin
Жанр: Avant-Garde, Modern Composition
Страна-производитель диска: Germany
Год издания диска: 1991
Издатель (лейбл): Enemy
Номер по каталогу: EMY134-2
Страна: US
Аудио кодек: FLAC (*.flac)
Тип рипа: tracks+.cue
Битрейт аудио: lossless
Продолжительность: 47:28
Источник (релизер): what.cd
Наличие сканов в содержимом раздачи: нет
Треклист:
1. Raptor 3:56
2. Good For Business 2:45
3. Wex 4:15
4. Sockets 5:12
5. Morphing 3:41
6. Tox 4:14
7. Contradiction In Terms 3:58
8. My Blood Is Boiling 0:55
9. Ossuary 2:51
10. Big Lie 2:04
11. Chilly Necessity 3:06
12. Running On Cafohol 5:44
13. Highrise 4:15
 
Лог создания рипа
Exact Audio Copy V0.99 prebeta 4 from 23. January 2008
EAC extraction logfile from 30. September 2008, 13:15
Elliott Sharp - Carbon / Tocsin
Used drive : _NEC DVD_RW ND-4571A Adapter: 0 ID: 2
Read mode : Secure
Utilize accurate stream : Yes
Defeat audio cache : Yes
Make use of C2 pointers : No
Read offset correction : 48
Overread into Lead-In and Lead-Out : No
Fill up missing offset samples with silence : Yes
Delete leading and trailing silent blocks : No
Null samples used in CRC calculations : Yes
Used interface : Installed external ASPI interface
Gap handling : Appended to previous track
Used output format : User Defined Encoder
Selected bitrate : 640 kBit/s
Quality : High
Add ID3 tag : No
Command line compressor : C:\Program Files\Exact Audio Copy\flac.exe
Additional command line options : • -8 -A tukey(0.25) -A gauss(0.1875) -b 4096 -V -T "artist=%a" -T "title=%t" -T "album=%g" -T "date=%y" -T "tracknumber=%n" -T "genre=%m" %s --sector-align
TOC of the extracted CD
Track | Start | Length | Start sector | End sector
---------------------------------------------------------
1 | 0:00.00 | 3:58.17 | 0 | 17866
2 | 3:58.17 | 2:47.23 | 17867 | 30414
3 | 6:45.40 | 4:16.42 | 30415 | 49656
4 | 11:02.07 | 5:13.63 | 49657 | 73194
5 | 16:15.70 | 3:42.05 | 73195 | 89849
6 | 19:58.00 | 4:21.60 | 89850 | 109484
7 | 24:19.60 | 4:00.30 | 109485 | 127514
8 | 28:20.15 | 0:57.70 | 127515 | 131859
9 | 29:18.10 | 2:53.27 | 131860 | 144861
10 | 32:11.37 | 2:06.40 | 144862 | 154351
11 | 34:18.02 | 3:09.23 | 154352 | 168549
12 | 37:27.25 | 5:45.57 | 168550 | 194481
13 | 43:13.07 | 4:15.23 | 194482 | 213629
Track 1
Filename H:\Elliott Sharp,Carbon - Tocsin\01 - Elliott Sharp - Carbon - Raptor .wav
Pre-gap length 0:00:02.00
Peak level 99.3 %
Track quality 100.0 %
Test CRC A2A6E941
Copy CRC A2A6E941
Copy OK
Track 2
Filename H:\Elliott Sharp,Carbon - Tocsin\02 - Elliott Sharp - Carbon - Good For Business .wav
Peak level 88.8 %
Track quality 100.0 %
Test CRC 4F2C5C46
Copy CRC 4F2C5C46
Copy OK
Track 3
Filename H:\Elliott Sharp,Carbon - Tocsin\03 - Elliott Sharp - Carbon - Wex .wav
Peak level 80.2 %
Track quality 100.0 %
Test CRC 4DDE9C89
Copy CRC 4DDE9C89
Copy OK
Track 4
Filename H:\Elliott Sharp,Carbon - Tocsin\04 - Elliott Sharp - Carbon - Sockets .wav
Peak level 99.7 %
Track quality 100.0 %
Test CRC 20F43E22
Copy CRC 20F43E22
Copy OK
Track 5
Filename H:\Elliott Sharp,Carbon - Tocsin\05 - Elliott Sharp - Carbon - Morphing .wav
Peak level 77.1 %
Track quality 100.0 %
Test CRC 0322C375
Copy CRC 0322C375
Copy OK
Track 6
Filename H:\Elliott Sharp,Carbon - Tocsin\06 - Elliott Sharp - Carbon - Tox .wav
Peak level 99.6 %
Track quality 100.0 %
Test CRC B4DCD7B8
Copy CRC B4DCD7B8
Copy OK
Track 7
Filename H:\Elliott Sharp,Carbon - Tocsin\07 - Elliott Sharp - Carbon - Contradiction In Terms .wav
Peak level 89.8 %
Track quality 99.9 %
Test CRC CB30AEC2
Copy CRC CB30AEC2
Copy OK
Track 8
Filename H:\Elliott Sharp,Carbon - Tocsin\08 - Elliott Sharp - Carbon - My Blood Is Boiling .wav
Peak level 99.7 %
Track quality 100.0 %
Test CRC EA65BE7F
Copy CRC EA65BE7F
Copy OK
Track 9
Filename H:\Elliott Sharp,Carbon - Tocsin\09 - Elliott Sharp - Carbon - Ossuary .wav
Peak level 90.0 %
Track quality 99.9 %
Test CRC 6D24B7A2
Copy CRC 6D24B7A2
Copy OK
Track 10
Filename H:\Elliott Sharp,Carbon - Tocsin\10 - Elliott Sharp - Carbon - Big Lie .wav
Peak level 70.2 %
Track quality 100.0 %
Test CRC 472181D0
Copy CRC 472181D0
Copy OK
Track 11
Filename H:\Elliott Sharp,Carbon - Tocsin\11 - Elliott Sharp - Carbon - Chilly Necessity .wav
Peak level 90.4 %
Track quality 100.0 %
Test CRC 5D5E2F28
Copy CRC 5D5E2F28
Copy OK
Track 12
Filename H:\Elliott Sharp,Carbon - Tocsin\12 - Elliott Sharp - Carbon - Running On Cafohol .wav
Peak level 95.9 %
Track quality 100.0 %
Test CRC D8DFE6A4
Copy CRC D8DFE6A4
Copy OK
Track 13
Filename H:\Elliott Sharp,Carbon - Tocsin\13 - Elliott Sharp - Carbon - Highrise .wav
Peak level 100.0 %
Track quality 100.0 %
Test CRC FA727FB6
Copy CRC FA727FB6
Copy OK
No errors occurred
End of status report
 
Содержание индексной карты (.CUE)
REM GENRE
REM DATE
REM DISCID 9F0B200D
REM COMMENT "ExactAudioCopy v0.99pb4"
PERFORMER "Elliott Sharp - Carbon"
TITLE "Tocsin"
FILE "01 - Elliott Sharp - Carbon - Raptor .wav" WAVE
TRACK 01 AUDIO
TITLE "Raptor"
PERFORMER "Elliott Sharp - Carbon"
INDEX 01 00:00:00
FILE "02 - Elliott Sharp - Carbon - Good For Business .wav" WAVE
TRACK 02 AUDIO
TITLE "Good For Business"
PERFORMER "Elliott Sharp - Carbon"
INDEX 01 00:00:00
FILE "03 - Elliott Sharp - Carbon - Wex .wav" WAVE
TRACK 03 AUDIO
TITLE "Wex"
PERFORMER "Elliott Sharp - Carbon"
INDEX 01 00:00:00
FILE "04 - Elliott Sharp - Carbon - Sockets .wav" WAVE
TRACK 04 AUDIO
TITLE "Sockets"
PERFORMER "Elliott Sharp - Carbon"
INDEX 01 00:00:00
FILE "05 - Elliott Sharp - Carbon - Morphing .wav" WAVE
TRACK 05 AUDIO
TITLE "Morphing"
PERFORMER "Elliott Sharp - Carbon"
INDEX 01 00:00:00
FILE "06 - Elliott Sharp - Carbon - Tox .wav" WAVE
TRACK 06 AUDIO
TITLE "Tox"
PERFORMER "Elliott Sharp - Carbon"
INDEX 01 00:00:00
FILE "07 - Elliott Sharp - Carbon - Contradiction In Terms .wav" WAVE
TRACK 07 AUDIO
TITLE "Contradiction In Terms"
PERFORMER "Elliott Sharp - Carbon"
INDEX 01 00:00:00
FILE "08 - Elliott Sharp - Carbon - My Blood Is Boiling .wav" WAVE
TRACK 08 AUDIO
TITLE "My Blood Is Boiling"
PERFORMER "Elliott Sharp - Carbon"
INDEX 01 00:00:00
FILE "09 - Elliott Sharp - Carbon - Ossuary .wav" WAVE
TRACK 09 AUDIO
TITLE "Ossuary"
PERFORMER "Elliott Sharp - Carbon"
INDEX 01 00:00:00
FILE "10 - Elliott Sharp - Carbon - Big Lie .wav" WAVE
TRACK 10 AUDIO
TITLE "Big Lie"
PERFORMER "Elliott Sharp - Carbon"
INDEX 01 00:00:00
FILE "11 - Elliott Sharp - Carbon - Chilly Necessity .wav" WAVE
TRACK 11 AUDIO
TITLE "Chilly Necessity"
PERFORMER "Elliott Sharp - Carbon"
INDEX 01 00:00:00
FILE "12 - Elliott Sharp - Carbon - Running On Cafohol .wav" WAVE
TRACK 12 AUDIO
TITLE "Running On Cafohol"
PERFORMER "Elliott Sharp - Carbon"
INDEX 01 00:00:00
FILE "13 - Elliott Sharp - Carbon - Highrise .wav" WAVE
TRACK 13 AUDIO
TITLE "Highrise"
PERFORMER "Elliott Sharp - Carbon"
INDEX 01 00:00:00
 
Лог проверки качества
d:\>d:\aucdtect -d/-m0 d:\zzz\*.wav
auCDtect: CD records authenticity detector, version 0.8.2
Copyright (c) 2004 Oleg Berngardt. All rights reserved.
Copyright (c) 2004 Alexander Djourik. All rights reserved.
------------------------------------------------------------
Processing file: [01. Raptor.wav]
------------------------------------------------------------
This track looks like CDDA with probability 100%
------------------------------------------------------------
Processing file: [02. Good For Business.wav]
------------------------------------------------------------
This track looks like CDDA with probability 100%
------------------------------------------------------------
Processing file: [03. Wex.wav]
------------------------------------------------------------
This track looks like CDDA with probability 100%
------------------------------------------------------------
Processing file: [04. Sockets.wav]
------------------------------------------------------------
This track looks like CDDA with probability 99%
------------------------------------------------------------
Processing file: [05. Morphing.wav]
------------------------------------------------------------
This track looks like CDDA with probability 100%
------------------------------------------------------------
Processing file: [06. Tox.wav]
------------------------------------------------------------
This track looks like CDDA with probability 100%
------------------------------------------------------------
Processing file: [07. Contradiction In Terms.wav]
------------------------------------------------------------
This track looks like CDDA with probability 100%
------------------------------------------------------------
Processing file: [08. My Blood Is Boiling.wav]
------------------------------------------------------------
This track looks like CDDA with probability 100%
------------------------------------------------------------
Processing file: [09. Ossuary.wav]
------------------------------------------------------------
This track looks like CDDA with probability 100%
------------------------------------------------------------
Processing file: [10. Big Lie.wav]
------------------------------------------------------------
This track looks like CDDA with probability 100%
------------------------------------------------------------
Processing file: [11. Chilly Necessity.wav]
------------------------------------------------------------
This track looks like CDDA with probability 100%
------------------------------------------------------------
Processing file: [12. Running On Cafohol.wav]
------------------------------------------------------------
This track looks like CDDA with probability 100%
------------------------------------------------------------
Processing file: [13. Highrise.wav]
------------------------------------------------------------
This track looks like CDDA with probability 100%
------------------------------------------------------------
Final Conclusion:
------------------------------------------------------------
These tracks looks like CDDA with probability 100%
 
Скриншот спектра частот
Доп. информация: Composed and produced by Elliott Sharp
Executive Producer: Michael Knuth
 
Состав
Zeena Parkins: electric harp
Marc Sloan: electric bass
Joseph Trump: drums, percussion
David Weinstein: sampler
E#: doubleneck guitarbass, sampler, lapsteel, soprano sax, ac. guitar
По всем вопросам пишите личное сообщение пользователю M0p94ok.
07:09
202
Нет комментариев. Ваш будет первым!