Вы используете незарегистрированную версию компонента "Вкладки"!

Поиск

(Avant-garde, Math Rock, Free Jazz, Experimental) Many Arms - Missing Time - 2010, FLAC (tracks+.cue), lossless

(Avant-garde, Math Rock, Free Jazz, Experimental) Many Arms - Missing Time - 2010, FLAC (tracks+.cue), lossless
Треклист:
Many Arms / Missing Time
Жанр: Avant-garde, Math Rock, Free Jazz, Experimental
Год издания: 2010
Издатель (лейбл): Engine
Номер по каталогу: e035
Аудиокодек: FLAC (*.flac)
Тип рипа: tracks+.cue
Битрейт аудио: lossless
Продолжительность: 43:35
Источник (релизер): whatcd/acneuens
Наличие сканов в содержимом раздачи: нет
Треклист:
1. Bonding
2. Presentation
3. No Valleys
4. Thoughtscreen
5. Enfolded Within a Great Flow
6. Extraction
7. Missing Time
 
Лог создания рипа
X Lossless Decoder version 20101117 (125.1)
XLD extraction logfile from 2010-11-22 17:02:41 -0500
Many Arms / Missing Time
Used drive : HL-DT-ST DVDRW GS23N (revision SB03)
Ripper mode : CDParanoia III 10.2
Disable audio cache : OK for the drive with a cache less than 2750KiB
Make use of C2 pointers : NO
Read offset correction : 667
Max retry count : 100
Gap status : Analyzed, Appended
TOC of the extracted CD
Track | Start | Length | Start sector | End sector
---------------------------------------------------------
1 | 00:00:00 | 02:43:35 | 0 | 12259
2 | 02:43:35 | 02:33:65 | 12260 | 23799
3 | 05:17:25 | 11:03:32 | 23800 | 73556
4 | 16:20:57 | 02:53:49 | 73557 | 86580
5 | 19:14:31 | 10:06:41 | 86581 | 132071
6 | 29:20:72 | 04:07:65 | 132072 | 150661
7 | 33:28:62 | 10:06:16 | 150662 | 196127
AccurateRip Summary
Track 01 : Not Found
Track 02 : Not Found
Track 03 : Not Found
Track 04 : Not Found
Track 05 : Not Found
Track 06 : Not Found
Track 07 : Not Found
->0 track(s) accurately ripped, 0 track(s) not, 7 track(s) not found
All Tracks
Album gain : -4.97 dB
Peak : 0.983643
Track 01
Filename : /Users/acneuens/Desktop/01 - Bonding.flac
/Users/acneuens/Desktop/01 - Bonding.mp3
Pre-gap length : 00:02:00
Track gain : -4.81 dB
Peak : 0.964020
CRC32 hash (test run) : 5ACE0463
CRC32 hash : 5ACE0463
CRC32 hash (skip zero) : 5B4B8D7D
AccurateRip signature : B0D49FCA
->Track not present in AccurateRip database.
Statistics
Read error : 0
Skipped (treated as error) : 0
Edge jitter error (maybe fixed) : 0
Atom jitter error (maybe fixed) : 0
Drift error (maybe fixed) : 0
Dropped bytes error (maybe fixed) : 0
Duplicated bytes error (maybe fixed) : 0
Inconsistency in error sectors : 0
Track 02
Filename : /Users/acneuens/Desktop/02 - Presentation.flac
/Users/acneuens/Desktop/02 - Presentation.mp3
Track gain : -5.35 dB
Peak : 0.970642
CRC32 hash (test run) : 61A33CBD
CRC32 hash : 61A33CBD
CRC32 hash (skip zero) : 30C5195B
AccurateRip signature : 3DFF52FA
->Track not present in AccurateRip database.
Statistics
Read error : 0
Skipped (treated as error) : 0
Edge jitter error (maybe fixed) : 0
Atom jitter error (maybe fixed) : 0
Drift error (maybe fixed) : 0
Dropped bytes error (maybe fixed) : 0
Duplicated bytes error (maybe fixed) : 0
Inconsistency in error sectors : 0
Track 03
Filename : /Users/acneuens/Desktop/03 - No Valleys.flac
/Users/acneuens/Desktop/03 - No Valleys.mp3
Pre-gap length : 00:00:24
Track gain : -4.50 dB
Peak : 0.972473
CRC32 hash (test run) : B3FC4E03
CRC32 hash : B3FC4E03
CRC32 hash (skip zero) : 96B99284
AccurateRip signature : E0373609
->Track not present in AccurateRip database.
Statistics
Read error : 0
Skipped (treated as error) : 0
Edge jitter error (maybe fixed) : 0
Atom jitter error (maybe fixed) : 0
Drift error (maybe fixed) : 0
Dropped bytes error (maybe fixed) : 0
Duplicated bytes error (maybe fixed) : 0
Inconsistency in error sectors : 0
Track 04
Filename : /Users/acneuens/Desktop/04 - Thoughtscreen.flac
/Users/acneuens/Desktop/04 - Thoughtscreen.mp3
Track gain : -4.58 dB
Peak : 0.964020
CRC32 hash (test run) : D376604E
CRC32 hash : D376604E
CRC32 hash (skip zero) : A7D365AA
AccurateRip signature : 65FBE2DB
->Track not present in AccurateRip database.
Statistics
Read error : 0
Skipped (treated as error) : 0
Edge jitter error (maybe fixed) : 0
Atom jitter error (maybe fixed) : 0
Drift error (maybe fixed) : 0
Dropped bytes error (maybe fixed) : 0
Duplicated bytes error (maybe fixed) : 0
Inconsistency in error sectors : 0
Track 05
Filename : /Users/acneuens/Desktop/05 - Enfolded Within A Great Flow.flac
/Users/acneuens/Desktop/05 - Enfolded Within A Great Flow.mp3
Track gain : -5.25 dB
Peak : 0.966553
CRC32 hash (test run) : 1B132E1C
CRC32 hash : 1B132E1C
CRC32 hash (skip zero) : 595C0245
AccurateRip signature : 6A09BC11
->Track not present in AccurateRip database.
Statistics
Read error : 0
Skipped (treated as error) : 0
Edge jitter error (maybe fixed) : 0
Atom jitter error (maybe fixed) : 0
Drift error (maybe fixed) : 0
Dropped bytes error (maybe fixed) : 0
Duplicated bytes error (maybe fixed) : 0
Inconsistency in error sectors : 0
Track 06
Filename : /Users/acneuens/Desktop/06 - Extraction.flac
/Users/acneuens/Desktop/06 - Extraction.mp3
Track gain : -6.25 dB
Peak : 0.978394
CRC32 hash (test run) : C4B7D1F5
CRC32 hash : C4B7D1F5
CRC32 hash (skip zero) : 6079CBA8
AccurateRip signature : D0744D3A
->Track not present in AccurateRip database.
Statistics
Read error : 0
Skipped (treated as error) : 0
Edge jitter error (maybe fixed) : 0
Atom jitter error (maybe fixed) : 0
Drift error (maybe fixed) : 0
Dropped bytes error (maybe fixed) : 0
Duplicated bytes error (maybe fixed) : 0
Inconsistency in error sectors : 0
Track 07
Filename : /Users/acneuens/Desktop/07 - Missing Time.flac
/Users/acneuens/Desktop/07 - Missing Time.mp3
Track gain : -4.42 dB
Peak : 0.983643
CRC32 hash (test run) : 836E9EE8
CRC32 hash : 836E9EE8
CRC32 hash (skip zero) : 483E1A1C
AccurateRip signature : E29AE43C
->Track not present in AccurateRip database.
Statistics
Read error : 0
Skipped (treated as error) : 0
Edge jitter error (maybe fixed) : 0
Atom jitter error (maybe fixed) : 0
Drift error (maybe fixed) : 0
Dropped bytes error (maybe fixed) : 0
Duplicated bytes error (maybe fixed) : 0
Inconsistency in error sectors : 0
No errors occurred
End of status report
 
Содержание индексной карты (.CUE)
TITLE "Missing Time"
PERFORMER "Many Arms"
REM GENRE "Metal"
REM DATE 2010
REM DISCNUMBER 1
REM TOTALDISCS 1
REM DISCID 4E0A3707
REM REPLAYGAIN_ALBUM_GAIN -4.97 dB
REM REPLAYGAIN_ALBUM_PEAK 0.983643
FILE "CDImage.wav" WAVE
TRACK 01 AUDIO
TITLE "Bonding"
REM REPLAYGAIN_TRACK_GAIN -4.81 dB
REM REPLAYGAIN_TRACK_PEAK 0.964020
INDEX 01 00:00:00
TRACK 02 AUDIO
TITLE "Presentation"
REM REPLAYGAIN_TRACK_GAIN -5.35 dB
REM REPLAYGAIN_TRACK_PEAK 0.970642
INDEX 01 02:43:35
TRACK 03 AUDIO
TITLE "No Valleys"
REM REPLAYGAIN_TRACK_GAIN -4.50 dB
REM REPLAYGAIN_TRACK_PEAK 0.972473
INDEX 00 05:17:01
INDEX 01 05:17:25
TRACK 04 AUDIO
TITLE "Thoughtscreen"
REM REPLAYGAIN_TRACK_GAIN -4.58 dB
REM REPLAYGAIN_TRACK_PEAK 0.964020
INDEX 01 16:20:57
TRACK 05 AUDIO
TITLE "Enfolded Within A Great Flow"
REM REPLAYGAIN_TRACK_GAIN -5.25 dB
REM REPLAYGAIN_TRACK_PEAK 0.966553
INDEX 01 19:14:31
TRACK 06 AUDIO
TITLE "Extraction"
REM REPLAYGAIN_TRACK_GAIN -6.25 dB
REM REPLAYGAIN_TRACK_PEAK 0.978394
INDEX 01 29:20:72
TRACK 07 AUDIO
TITLE "Missing Time"
REM REPLAYGAIN_TRACK_GAIN -4.42 dB
REM REPLAYGAIN_TRACK_PEAK 0.983643
INDEX 01 33:28:62
Any questions -> support@pro-jazz.com. По всем вопросам пишите -> support@pro-jazz.com
03:56
160
Нет комментариев. Ваш будет первым!