Вы используете незарегистрированную версию компонента "Вкладки"!

Поиск

(Avant-Garde) Marty Ehrlich & Ben Goldberg - Light At The Crossroads - 1997, FLAC (image+.cue), lossless

(Avant-Garde) Marty Ehrlich & Ben Goldberg - Light At The Crossroads - 1997, FLAC (image+.cue), lossless
Треклист:
Marty Ehrlich & Ben Goldberg - Light At The Crossroads
Жанр: Avant-Garde
Год выпуска диска: 1997
Производитель диска: Canada (Songlines)
Аудио кодек: FLAC
Тип рипа: image+.cue
Битрейт аудио: lossless
Продолжительность: 52:13
Marty Ehrlich clarinet, bass clarinet
Ben Goldberg clarinet, bass clarinet
Trevor Dunn bass
Kenny Wollesen drums, bug
1. Texas
2. I Don't Know This World Without Don Cherry
3. What I Lost
4. Ask Me Later
5. Dark Sestina
6. Hopeless
7. Twos
8. April 4
9. Light At The Crossroads
 
All Music Guide Review
The opening number on this intriguing set, "Texas," and almost sounds like a tribute to Eric Dolphy, with Marty Ehrlich and Ben Goldberg both on bass clarinets battling it out for a time. However, Dolphy's influence on the two reed players (who double on clarinet) is much less than one would expect. Much of the music could be considered "freebop," with a pulse generated by bassist Trevor Dunn often serving as the main foundation for the pieces. Dunn is a powerful and sometimes thunderous player who is also expert at using space in the pianoless quartet. While drummer Kenny Wollesen plays quietly and with subtlety, the focus is mostly on the co-leaders. Ehrlich and Goldberg contributed four originals apiece, all but Wayne Horvitz's "Ask Me Later." The music covers a wide variety of moods, is sometimes melancholy (as on "What I Lost") and at other times heated. Highlights include Ehrlich's haunting "Twos" (the most memorable melody on the date), the unaccompanied bass clarinet duet on "April 4," and the surprisingly upbeat "Hopeless." This date mixes improvising with inventive arrangements and is well worth hearing several times, since a lot of creative ideas are expressed throughout the session. ~ Scott Yanow, All Music Guide
 
EAC Report
Exact Audio Copy V0.99 prebeta 4 from 23. January 2008
EAC extraction logfile from 10. January 2009, 9:33
Marty Ehrlich / Ben Goldberg / Light At The Crossroads
Used drive : TSSTcorpCD/DVDW SH-S182M Adapter: 2 ID: 2
Read mode : Secure
Utilize accurate stream : Yes
Defeat audio cache : Yes
Make use of C2 pointers : No
Read offset correction : 6
Overread into Lead-In and Lead-Out : No
Fill up missing offset samples with silence : Yes
Delete leading and trailing silent blocks : No
Null samples used in CRC calculations : Yes
Used interface : Installed external ASPI interface
Used output format : User Defined Encoder
Selected bitrate : 1024 kBit/s
Quality : High
Add ID3 tag : No
Command line compressor : C:\Program Files\Exact Audio Copy\FLAC\FLAC.EXE
Additional command line options : -8 -V -T "ARTIST=%a" -T "TITLE=%t" -T "ALBUM=%g" -T "DATE=%y" -T "TRACKNUMBER=%n" -T "GENRE=%m" -T "COMMENT=%e" %s -o %d
TOC of the extracted CD
Track | Start | Length | Start sector | End sector
---------------------------------------------------------
1 | 0:00.00 | 4:05.10 | 0 | 18384
2 | 4:05.10 | 7:12.07 | 18385 | 50791
3 | 11:17.17 | 6:13.60 | 50792 | 78826
4 | 17:31.02 | 7:38.38 | 78827 | 113214
5 | 25:09.40 | 7:25.30 | 113215 | 146619
6 | 32:34.70 | 4:19.25 | 146620 | 166069
7 | 36:54.20 | 3:59.14 | 166070 | 184008
8 | 40:53.34 | 4:24.13 | 184009 | 203821
9 | 45:17.47 | 6:55.18 | 203822 | 234964
Range status and errors
Selected range
Filename C:\z\Marty Ehrlich & Ben Goldberg - Light At The Crossroads.wav
Peak level 98.8 %
Range quality 100.0 %
Test CRC 039C3FE6
Copy CRC 039C3FE6
Copy OK
No errors occurred
AccurateRip summary
Track 1 cannot be verified as accurate (confidence 1) [7A0ABBF0], AccurateRip returned [19AE440B]
Track 2 cannot be verified as accurate (confidence 1) [EAB5A336], AccurateRip returned [88DD2708]
Track 3 cannot be verified as accurate (confidence 1) [D1D412A8], AccurateRip returned [8B36EEE7]
Track 4 cannot be verified as accurate (confidence 1) [64DB1568], AccurateRip returned [66B0A662]
Track 5 cannot be verified as accurate (confidence 1) [AF8CE678], AccurateRip returned [4210538C]
Track 6 cannot be verified as accurate (confidence 1) [F83082BC], AccurateRip returned [772818ED]
Track 7 cannot be verified as accurate (confidence 1) [3C360437], AccurateRip returned [006DF6DF]
Track 8 cannot be verified as accurate (confidence 1) [748AFF88], AccurateRip returned [568D2FF7]
Track 9 cannot be verified as accurate (confidence 1) [CDD73350], AccurateRip returned [B3A0E224]
No tracks could be verified as accurate
You may have a different pressing from the one(s) in the database
End of status report
Any questions -> support@pro-jazz.com. По всем вопросам пишите -> support@pro-jazz.com
07:59
125
Нет комментариев. Ваш будет первым!