Вы используете незарегистрированную версию компонента "Вкладки"!

Поиск

(avant-garde) Mal Waldron & Steve Lacy - Sempre Amore 1986, FLAC (tracks+.cue), lossless

Треклист:


Mal Waldron & Steve Lacy - Sempre Amore
Жанр: jazz, avant-garde
Год выпуска: 1986
Формат: FLAC (tracks+.cue)
Битрейт аудио: lossless
Продолжительность
Источник: ed2k

tracks

1. Johnny Come Lately
2. Prelude to a Kiss
3. Star-Crossed Lovers
4. To the Bitter
5. Azure
6. Sempre Amore
7. Flower Is a Lovesome Thing
8. Smada


 
logfile
X Lossless Decoder version 20090828 (109.5)
XLD extraction logfile from 2009-08-28 20:34:04 -0400
Steve Lacy & Mal Waldron / Sempre Amore
Used drive : MATSHITA DVD-R UJ-845E (revision DMP2)
Use cdparanoia mode : YES (CDParanoia III 10.2 engine)
Disable audio cache : OK for the drive with cache less than 2750KB
Make use of C2 pointers : NO
Read offset correction : 102
Max retry count : 100
TOC of the extracted CD
Track | Start | Length | Start sector | End sector
---------------------------------------------------------
1 | 00:00:32 | 06:47:35 | 32 | 30591
2 | 06:47:67 | 05:36:08 | 30592 | 55799
3 | 12:24:00 | 04:36:50 | 55800 | 76549
4 | 17:00:50 | 05:21:35 | 76550 | 100659
5 | 22:22:10 | 04:22:35 | 100660 | 120344
6 | 26:44:45 | 04:44:45 | 120345 | 141689
7 | 31:29:15 | 05:18:10 | 141690 | 165549
8 | 36:47:25 | 07:04:62 | 165550 | 197411
Track 01
Filename : /Users/jacobwunsch/Desktop/Steve Lacy & Mal Waldron - Sempre Amore - 1987/01 Steve Lacy & Mal Waldron - Johnny Come Lately.flac
CRC32 hash (test run) : 0CE1EF2D
CRC32 hash : 0CE1EF2D
CRC32 hash (skip zero) : 9CE7DA83
AccurateRip signature : 44441D81
->Track not present in AccurateRip database.
Statistics
Read error : 0
Skipped (treated as error) : 0
Edge jitter error (maybe fixed) : 0
Atom jitter error (maybe fixed) : 0
Drift error (maybe fixed) : 0
Dropped bytes error (maybe fixed) : 0
Duplicated bytes error (maybe fixed) : 0
Inconsistency in error sectors : 0
Track 02
Filename : /Users/jacobwunsch/Desktop/Steve Lacy & Mal Waldron - Sempre Amore - 1987/02 Steve Lacy & Mal Waldron - Prelude To A Kiss.flac
CRC32 hash (test run) : 7FDCF55C
CRC32 hash : 7FDCF55C
CRC32 hash (skip zero) : 2C690634
AccurateRip signature : 324F6980
->Track not present in AccurateRip database.
Statistics
Read error : 0
Skipped (treated as error) : 0
Edge jitter error (maybe fixed) : 0
Atom jitter error (maybe fixed) : 0
Drift error (maybe fixed) : 0
Dropped bytes error (maybe fixed) : 0
Duplicated bytes error (maybe fixed) : 0
Inconsistency in error sectors : 0
Track 03
Filename : /Users/jacobwunsch/Desktop/Steve Lacy & Mal Waldron - Sempre Amore - 1987/03 Steve Lacy & Mal Waldron - Stars Crossed Lovers.flac
CRC32 hash (test run) : A91C966D
CRC32 hash : A91C966D
CRC32 hash (skip zero) : FE22CB05
AccurateRip signature : 2D4213E8
->Track not present in AccurateRip database.
Statistics
Read error : 0
Skipped (treated as error) : 0
Edge jitter error (maybe fixed) : 0
Atom jitter error (maybe fixed) : 0
Drift error (maybe fixed) : 0
Dropped bytes error (maybe fixed) : 0
Duplicated bytes error (maybe fixed) : 0
Inconsistency in error sectors : 0
Track 04
Filename : /Users/jacobwunsch/Desktop/Steve Lacy & Mal Waldron - Sempre Amore - 1987/04 Steve Lacy & Mal Waldron - To The Bitter.flac
CRC32 hash (test run) : C7AE3C9F
CRC32 hash : C7AE3C9F
CRC32 hash (skip zero) : E5DC4844
AccurateRip signature : 992D723B
->Track not present in AccurateRip database.
Statistics
Read error : 0
Skipped (treated as error) : 0
Edge jitter error (maybe fixed) : 0
Atom jitter error (maybe fixed) : 0
Drift error (maybe fixed) : 0
Dropped bytes error (maybe fixed) : 0
Duplicated bytes error (maybe fixed) : 0
Inconsistency in error sectors : 0
Track 05
Filename : /Users/jacobwunsch/Desktop/Steve Lacy & Mal Waldron - Sempre Amore - 1987/05 Steve Lacy & Mal Waldron - Azure.flac
CRC32 hash (test run) : EDBE560B
CRC32 hash : EDBE560B
CRC32 hash (skip zero) : E5EE6B19
AccurateRip signature : 4F687B2E
->Track not present in AccurateRip database.
Statistics
Read error : 0
Skipped (treated as error) : 0
Edge jitter error (maybe fixed) : 0
Atom jitter error (maybe fixed) : 0
Drift error (maybe fixed) : 0
Dropped bytes error (maybe fixed) : 0
Duplicated bytes error (maybe fixed) : 0
Inconsistency in error sectors : 0
Track 06
Filename : /Users/jacobwunsch/Desktop/Steve Lacy & Mal Waldron - Sempre Amore - 1987/06 Steve Lacy & Mal Waldron - Sempre Amore.flac
CRC32 hash (test run) : 4369E394
CRC32 hash : 4369E394
CRC32 hash (skip zero) : ABD36231
AccurateRip signature : 43FDDF3F
->Track not present in AccurateRip database.
Statistics
Read error : 0
Skipped (treated as error) : 0
Edge jitter error (maybe fixed) : 0
Atom jitter error (maybe fixed) : 0
Drift error (maybe fixed) : 0
Dropped bytes error (maybe fixed) : 0
Duplicated bytes error (maybe fixed) : 0
Inconsistency in error sectors : 0
Track 07
Filename : /Users/jacobwunsch/Desktop/Steve Lacy & Mal Waldron - Sempre Amore - 1987/07 Steve Lacy & Mal Waldron - A Flower Is A Lovesome Thing.flac
CRC32 hash (test run) : 1FDB1837
CRC32 hash : 1FDB1837
CRC32 hash (skip zero) : FACA2D57
AccurateRip signature : D7E8B71F
->Track not present in AccurateRip database.
Statistics
Read error : 0
Skipped (treated as error) : 0
Edge jitter error (maybe fixed) : 0
Atom jitter error (maybe fixed) : 0
Drift error (maybe fixed) : 0
Dropped bytes error (maybe fixed) : 0
Duplicated bytes error (maybe fixed) : 0
Inconsistency in error sectors : 0
Track 08
Filename : /Users/jacobwunsch/Desktop/Steve Lacy & Mal Waldron - Sempre Amore - 1987/08 Steve Lacy & Mal Waldron - Smada.flac
CRC32 hash (test run) : 5BD2FDF3
CRC32 hash : 5BD2FDF3
CRC32 hash (skip zero) : D91F49C4
AccurateRip signature : 43B11255
->Track not present in AccurateRip database.
Statistics
Read error : 0
Skipped (treated as error) : 0
Edge jitter error (maybe fixed) : 0
Atom jitter error (maybe fixed) : 0
Drift error (maybe fixed) : 0
Dropped bytes error (maybe fixed) : 0
Duplicated bytes error (maybe fixed) : 0
Inconsistency in error sectors : 0
No errors occurred
End of status report

другие релизы
По всем вопросам пишите личное сообщение пользователю M0p94ok.
16:57
210
Нет комментариев. Ваш будет первым!