Вы используете незарегистрированную версию компонента "Вкладки"!

Поиск

(avant-garde) Lavollee Dubreuil Larmignat Trio - Le Symptome (2011), FLAC (tracks+.cue), lossless

(avant-garde) Lavollee Dubreuil Larmignat Trio - Le Symptome (2011), FLAC (tracks+.cue), lossless
Треклист:


Lavollee Dubreuil Larmignat Trio - Le Symptome (2011)

Жанр: avant-garde
Год выпуска: 2011
Издатель (лейбл): ô jazz ! / Codaex / 001
Формат: FLAC (tracks+.cue)
Битрейт аудио: lossless
Продолжительность 59`21
Источник: what.cd
Benoît Lavollée (vibes, marimba),
Baptiste Dubreuil (Rhodes, Moog, Piano),
Nicolas Larmignat (dms),
Jacques Dubreuil (fgh, 4).

tracks

01 - Vivant
02 - 1884
03 - Tou Tou You Tou
04 - Sur le Pe
05 - Oui peut-etre
06 - Alice
07 - Minuit
08 - Nima


 
.log
Exact Audio Copy V1.0 beta 3 from 29. August 2011
EAC extraction logfile from 25. January 2012, 19:20
Lavolee Dubreuil Larmignat Trio / Le Symptome
Used drive : PLEXTOR DVDR PX-860A Adapter: 0 ID: 0
Read mode : Secure
Utilize accurate stream : Yes
Defeat audio cache : Yes
Make use of C2 pointers : No
Read offset correction : 96
Overread into Lead-In and Lead-Out : No
Fill up missing offset samples with silence : Yes
Delete leading and trailing silent blocks : No
Null samples used in CRC calculations : Yes
Used interface : Native Win32 interface for Win NT & 2000
Gap handling : Appended to previous track
Used output format : User Defined Encoder
Selected bitrate : 1024 kBit/s
Quality : High
Add ID3 tag : No
Command line compressor : C:\Program Files\Exact Audio Copy 3\Flac\flac.exe
Additional command line options : -8 -V -T "ARTIST=%artist%" -T "TITLE=%title%" -T "ALBUM=%albumtitle%" -T "DATE=%year%" -T "TRACKNUMBER=%tracknr%" -T "GENRE=%genre%" -T "PERFORMER=%albuminterpret%" -T "COMPOSER=%composer%" %haslyrics%--tag-from-file=LYRICS="%lyricsfile%"%haslyrics% -T "ALBUMARTIST=%albumartist%" -T "DISCNUMBER=%cdnumber%" -T "TOTALDISCS=%totalcds%" -T "TOTALTRACKS=%numtracks%" -T "COMMENT=%comment%" %source% -o %dest%
TOC of the extracted CD
Track | Start | Length | Start sector | End sector
---------------------------------------------------------
1 | 0:00.00 | 7:06.68 | 0 | 32017
2 | 7:06.68 | 11:55.45 | 32018 | 85687
3 | 19:02.38 | 5:30.55 | 85688 | 110492
4 | 24:33.18 | 5:44.57 | 110493 | 136349
5 | 30:18.00 | 5:22.09 | 136350 | 160508
6 | 35:40.09 | 7:42.67 | 160509 | 195225
7 | 43:23.01 | 7:16.40 | 195226 | 227965
8 | 50:39.41 | 8:41.62 | 227966 | 267102
Track 1
Filename I:\DL\Lavolee Dubreuil Larmignat Trio - Le Symptome (2011) [FLAC]\01 - Vivant.wav
Pre-gap length 0:00:02.00
Peak level 100.0 %
Extraction speed 4.4 X
Track quality 99.9 %
Test CRC 393508F6
Copy CRC 393508F6
Track not present in AccurateRip database
Copy OK
Track 2
Filename I:\DL\Lavolee Dubreuil Larmignat Trio - Le Symptome (2011) [FLAC]\02 - 1884.wav
Pre-gap length 0:00:01.77
Peak level 100.0 %
Extraction speed 5.9 X
Track quality 100.0 %
Test CRC 62BA59BA
Copy CRC 62BA59BA
Track not present in AccurateRip database
Copy OK
Track 3
Filename I:\DL\Lavolee Dubreuil Larmignat Trio - Le Symptome (2011) [FLAC]\03 - Tou Tou You Tou.wav
Pre-gap length 0:00:00.37
Peak level 100.0 %
Extraction speed 6.4 X
Track quality 100.0 %
Test CRC A2C663FB
Copy CRC A2C663FB
Track not present in AccurateRip database
Copy OK
Track 4
Filename I:\DL\Lavolee Dubreuil Larmignat Trio - Le Symptome (2011) [FLAC]\04 - Sur le Pe.wav
Peak level 100.0 %
Extraction speed 6.8 X
Track quality 100.0 %
Test CRC 1AEDB1AD
Copy CRC 1AEDB1AD
Track not present in AccurateRip database
Copy OK
Track 5
Filename I:\DL\Lavolee Dubreuil Larmignat Trio - Le Symptome (2011) [FLAC]\05 - Oui peut-etre.wav
Peak level 100.0 %
Extraction speed 7.1 X
Track quality 100.0 %
Test CRC 3DE01F2B
Copy CRC 3DE01F2B
Track not present in AccurateRip database
Copy OK
Track 6
Filename I:\DL\Lavolee Dubreuil Larmignat Trio - Le Symptome (2011) [FLAC]\06 - Alice.wav
Pre-gap length 0:00:00.86
Peak level 100.0 %
Extraction speed 7.7 X
Track quality 100.0 %
Test CRC DA2658FF
Copy CRC DA2658FF
Track not present in AccurateRip database
Copy OK
Track 7
Filename I:\DL\Lavolee Dubreuil Larmignat Trio - Le Symptome (2011) [FLAC]\07 - Minuit.wav
Pre-gap length 0:00:00.20
Peak level 100.0 %
Extraction speed 8.1 X
Track quality 100.0 %
Test CRC EA4100F1
Copy CRC EA4100F1
Track not present in AccurateRip database
Copy OK
Track 8
Filename I:\DL\Lavolee Dubreuil Larmignat Trio - Le Symptome (2011) [FLAC]\08 - Nima.wav
Pre-gap length 0:00:01.82
Peak level 100.0 %
Extraction speed 8.7 X
Track quality 100.0 %
Test CRC 5DF02955
Copy CRC 5DF02955
Track not present in AccurateRip database
Copy OK
None of the tracks are present in the AccurateRip database
No errors occurred
End of status report
---- CUETools DB Plugin V2.1.3
[CTDB TOCID: eNrzroejW.iucExYaVpi2CEM2_Q-] disk not present in database, Submit result: database access error: The request was aborted: The request was canceled.
==== Log checksum 0E208838D47184149B35338EBD098D838FDBEE508114AE67EE7ECBC8CAC2C059 ====
 
.cue
REM GENRE Jazz
REM DATE 2011
REM DISCID 540DE908
REM COMMENT "ExactAudioCopy v1.0b3"
PERFORMER "Lavolee Dubreuil Larmignat Trio"
TITLE "Le Symptome"
FILE "01 - Vivant.wav" WAVE
TRACK 01 AUDIO
TITLE "Vivant"
PERFORMER "Lavolee Dubreuil Larmignat Trio"
ISRC FR9W11100299
INDEX 01 00:00:00
TRACK 02 AUDIO
TITLE "1884"
PERFORMER "Lavolee Dubreuil Larmignat Trio"
ISRC FR9W11100301
INDEX 00 07:05:10
FILE "02 - 1884.wav" WAVE
INDEX 01 00:00:00
TRACK 03 AUDIO
TITLE "Tou Tou You Tou"
PERFORMER "Lavolee Dubreuil Larmignat Trio"
ISRC FR9W11100304
INDEX 00 11:55:17
FILE "03 - Tou Tou You Tou.wav" WAVE
INDEX 01 00:00:00
FILE "04 - Sur le Pe.wav" WAVE
TRACK 04 AUDIO
TITLE "Sur le Pe"
PERFORMER "Lavolee Dubreuil Larmignat Trio"
ISRC FR9W11100303
INDEX 01 00:00:00
FILE "05 - Oui peut-etre.wav" WAVE
TRACK 05 AUDIO
TITLE "Oui peut-etre"
PERFORMER "Lavolee Dubreuil Larmignat Trio"
ISRC FR9W11100305
INDEX 01 00:00:00
TRACK 06 AUDIO
TITLE "Alice"
PERFORMER "Lavolee Dubreuil Larmignat Trio"
ISRC FR9W11100302
INDEX 00 05:21:19
FILE "06 - Alice.wav" WAVE
INDEX 01 00:00:00
TRACK 07 AUDIO
TITLE "Minuit"
PERFORMER "Lavolee Dubreuil Larmignat Trio"
ISRC FR9W11100300
INDEX 00 07:42:52
FILE "07 - Minuit.wav" WAVE
INDEX 01 00:00:00
TRACK 08 AUDIO
TITLE "Nima"
PERFORMER "Lavolee Dubreuil Larmignat Trio"
ISRC FR9W11100306
INDEX 00 07:14:53
FILE "08 - Nima.wav" WAVE
INDEX 01 00:00:00

другие релизы
Any questions -> support@pro-jazz.com. По всем вопросам пишите -> support@pro-jazz.com
03:37
115
Нет комментариев. Ваш будет первым!